Реклама
Каталог
  iPhone
  Филми
      DVD-R
      XviD
      HDTV
      Сериали
      Формула 1
  Музика
      Песен
      Албум
      Клипове
  Игри
      PC
      Конзоли
  Програми
      Windows
      Linux
      MacOS
      PDA
  Книги
  XXX
  Други
  Всички
Форум
Теми:2,144
Отговори:251,994
Теми/Отговори:1 %
Торент детайли
Файл Леприкон 3 (1995) / Leprechaun 3 - DVD-Rip
СВАЛИ Леприкон 3 (1995) / Leprechaun 3 - DVD-Rip
Реклама
Инфо хeш 032e0bde75074310e5b426bd2fc574da178fa137
Описание




' ## Заглавие на Английски: Leprechaun 3

## Заглавие на Български: Леприкон 3

## Релийз: DVD-Rip

## Жанр: Комедия; Ужаси; Фентъзи

## Режисьор: Брайън Тренхард-Смит

## Сценарист: Дейвид Дюбос

## В ролите:
Уоруик Дейвис,
Джон Гейтинс,
Лий Армстронг,
Каролин Уилямс и др..


## Държава:: САЩ

## Година: 1995

## Дължина: 01:33:02

## Видео поток:
Format : AVC
Format/Info : Advanced Video Codec
Format profile : Main@L3
Format settings, CABAC : Yes
Format settings, ReFrames : 1 frame
Codec ID : H264
Duration : 1 h 33 min
Bit rate : 1 618 kb/s
Width : 704 pixels
Height : 400 pixels
Display aspect ratio : 16:9
Frame rate mode : Variable
Frame rate : 23.976 (24000/1001) FPS
Color space : YUV
Chroma subsampling : 4:2:0
Bit depth : 8 bits
Scan type : Progressive
Bits/(Pixel*Frame) : 0.240
Stream size : 1.05 GiB (86%)
Writing library : x264 core 129


## Аудио поток:
Format : MPEG Audio
Format version : Version 1
Format profile : Layer 3
Mode : Joint stereo
Codec ID : 55
Codec ID/Hint : MP3
Duration : 1 h 33 min
Bit rate mode : Constant
Bit rate : 256 kb/s
Channel(s) : 2 channels
Sampling rate : 48.0 kHz
Compression mode : Lossy
Stream size : 171 MiB (14%)
Alignment : Aligned on interleaves
Interleave, duration : 24 ms (0.58 video frame)


## Субтитри: в торента

## Резюме:
Човек с един крак, ръка и око влиза в заложна къща в Лас Вегас, където оставя статуя на леприкон, на чиито врат има медальон. Собственикът на къщата взима медальона заедно с гърненцето злато и по този начин освобождава злия леприкон.


## Друга информация:















Категория Movies XviD
Оценка:
  • Currently 5.00/5
Rating: 5.0 out of 5.0 (Votes: 1) For your upload!

Размер 1.22 GB
Покажи / скрий файловете
4 files
Добавен 09/07/2017 - 22:57
Последно активен 26/07/2017 - 02:37
Свален 44 Път(и)
Пиъри Сийдъри: 4, Лийчъри: 0 = 4 Пиъри


Без коментар...