Реклама
Каталог
  iPhone
  Филми
      DVD-R
      XviD
      HDTV
      Сериали
      Формула 1
  Музика
      Песен
      Албум
      Клипове
  Игри
      PC
      Конзоли
  Програми
      Windows
      Linux
      MacOS
      PDA
  Книги
  XXX
  Други
  Всички
Форум
Теми:2,223
Отговори:257,686
Теми/Отговори:1 %
Торент детайли
Файл Жената чудо 2 (2020) / Wonder Woman 1984 - BRRip
СВАЛИ Жената чудо 2 (2020) / Wonder Woman 1984 - BRRip
Реклама
Инфо хeш 09815a9595cbe2fd6fef496d3dc94a229e6fdf76
Описание

## Заглавие на Английски: Wonder Woman 1984

## Заглавие на Български: Жената чудо 2

## Релийз: BRRip

## Жанр: Екшън; Приключенски; Фентъзи

## Режисьор: Пати Дженкинс

## Сценарист: Джоф Джоунс, Пати Дженкинс, Дейв Калахам

## В ролите: Линда Картър, Робин Райт, Кони Нилсен, Габриела Уайлд, Рави Пател, Гал Гадот, Крис Пайн, Педро Паскал, Кристен Уиг, Наташа Ротуел

## Държава:: САЩ

## Година: 2020

## Дължина: 02:31:00

## Видео поток: ID : 1
Format : AVC
Format/Info : Advanced Video Codec
Format profile : High@L3.1
Format settings : CABAC / 4 Ref Frames
Format settings, CABAC : Yes
Format settings, Reference frames : 4 frames
Codec ID : V_MPEG4/ISO/AVC
Duration : 2 h 31 min
Bit rate : 1 100 kb/s
Width : 1 280 pixels
Height : 536 pixels
Display aspect ratio : 2.40:1
Frame rate mode : Constant
Frame rate : 23.976 (24000/1001) FPS
Color space : YUV
Chroma subsampling : 4:2:0
Bit depth : 8 bits
Scan type : Progressive
Bits/(Pixel*Frame) : 0.067
Stream size : 1.16 GiB (89%)
Writing library : x264 core 159


## Аудио поток: ID : 2
Format : AAC LC
Format/Info : Advanced Audio Codec Low Complexity
Codec ID : A_AAC-2
Duration : 2 h 31 min
Bit rate : 128 kb/s
Channel(s) : 2 channels
Channel layout : L R
Sampling rate : 48.0 kHz
Frame rate : 46.875 FPS (1024 SPF)
Compression mode : Lossy
Delay relative to video : -21 ms
Stream size : 139 MiB (10%)
Language : English
Default : Yes
Forced : No


## Субтитри: от subsunacs.net

## Адрес на субтитрите (URL): https://subsunacs.net/subtitles/Wonder_Woman_1984-140617/

## Резюме: В своята нова мисия, чието действие се развива по време на Студената война, принцесата на Амазонките Диана ще се изправи срещу археоложката Барбара Ан Минерва, която ще се превърне в зловещата Чита. Гал Гадот е отново в коронната си роля, а в ролята на Чита е Кристен Уиг. Крис Пайн също ще видим в ролята на Стив Тревър – да, напук на логиката той е успял да оцелее.

## Друга информация: .

IMDb : Линк към IMDb

Cinefish.bg : Линк към КиноВиж

ТРЕЙЛЪР : Линк към YOUTUBE



Категория Movies XviD
Оценка:
  • Currently 5.00/5
Rating: 5.0 out of 5.0 (Votes: 9) For your upload!

Размер 1.30 GB
Покажи / скрий файловете
2 files
Добавен 27/12/2020 - 19:55
Последно активен 22/01/2021 - 19:02
Свален 872 Път(и)
Пиъри Сийдъри: 53, Лийчъри: 1 = 54 Пиъри


veskam (User) 21/01/2021 13:14:58 (1 day ago) Редактиране!
Плакатът е за предишния филм.