Реклама
Каталог
  iPhone
  Филми
      DVD-R
      XviD
      HDTV
      Сериали
      Формула 1
  Музика
      Песен
      Албум
      Клипове
  Игри
      PC
      Конзоли
  Програми
      Windows
      Linux
      MacOS
      PDA
  Книги
  XXX
  Други
  Всички
Форум
Теми:2,190
Отговори:255,465
Теми/Отговори:1 %
Торент детайли
Файл Пресушаване на потъналия пиратски град 1080pWebRip-P2pRipTeam (2017) - HDTV-Rip
СВАЛИ Пресушаване на потъналия пиратски град 1080pWebRip-P2pRipTeam (2017) - HDTV-Rip
Реклама
Инфо хeш 09e9ffa711d3c45fef33f3266623abfe352d76a9
Описание

## Заглавие на Английски: Пресушаване на потъналия пиратски град 1080pWebRip-P2pRipTeam

## Релийз: HDTV-Rip

## Жанр: Документален

## Държава:: САЩ

## Година: 2017

## Дължина: 47 мин

## Видео поток: Video
ID : 1
Format : AVC
Format/Info : Advanced Video Codec
Format profile : High@L4.1
Format settings : CABAC / 4 Ref Frames
Format settings, CABAC : Yes
Format settings, ReFrames : 4 frames
Format settings, GOP : M=4, N=12
Codec ID : V_MPEG4/ISO/AVC
Duration : 47 min 1 s
Bit rate : 9 269 kb/s
Width : 1 920 pixels
Height : 1 080 pixels
Display aspect ratio : 16:9
Frame rate mode : Variable
Frame rate : 50.000 FPS
Original frame rate : 25.000 FPS
Color space : YUV
Chroma subsampling : 4:2:0
Bit depth : 8 bits
Scan type : Interlaced
Scan type, store method : Separated fields
Scan order : Top Field First
Bits/(Pixel*Frame) : 0.089
Stream size : 3.04 GiB (98%)
Default : Yes
Forced : No
Color range : Limited
Color primaries : BT.709
Transfer characteristics : BT.709
Matrix coefficients : BT.709


## Аудио поток: Audio
ID : 2
Format : MPEG Audio
Format version : Version 1
Format profile : Layer 2
Codec ID : A_MPEG/L2
Codec ID/Hint : MP2
Duration : 47 min 1 s
Bit rate mode : Constant
Bit rate : 192 kb/s
Channel(s) : 2 channels
Sampling rate : 48.0 kHz
Frame rate : 41.667 FPS (1152 SPF)
Compression mode : Lossy
Stream size : 64.6 MiB (2%)
Language : Bulgarian
Default : Yes
Forced : No


## Субтитри: BG Audio

## Резюме: Скрити под водите на пристанището на Кингстън, Ямайка, лежат руините на най-големия пиратски град - Порт Роял. На 7 юни 1692 земетресение и последвалото го цунами разрушават града: две трети от него потъват за минути, а 5 000 души загиват.

## Друга информация:





Категория Movies Documentary
Оценка:
  • Currently 0.00/5
Rating: 0.0 out of 5.0 (Votes: 0) For your upload!

Размер 3.11 GB
Покажи / скрий файловете
1 file
Добавен 12/01/2018 - 13:19
Последно активен 12/12/2018 - 21:52
Свален 159 Път(и)
Пиъри Сийдъри: 1, Лийчъри: 0 = 1 Пиъри


Без коментар...