Реклама
Каталог
  iPhone
  Филми
      DVD-R
      XviD
      HDTV
      Сериали
      Формула 1
  Музика
      Песен
      Албум
      Клипове
  Игри
      PC
      Конзоли
  Програми
      Windows
      Linux
      MacOS
      PDA
  Книги
  XXX
  Други
  Всички
Форум
Теми:2,154
Отговори:253,949
Теми/Отговори:1 %
Торент детайли
Файл Атомна блондинка (2017) / Atomic Blonde - BluRay Disc
СВАЛИ Атомна блондинка (2017) / Atomic Blonde - BluRay Disc
Реклама
Инфо хeш 0be11932542269f4a155682cb2fdd695c72c8fe3
Описание




' ## Заглавие на Английски: Atomic Blonde

## Заглавие на Български: Атомна блондинка

## Релийз: BluRay Disc

## Жанр: Екшън; Мистерия; Трилър

## Режисьор: Дейвид Лийч

## Сценарист: Кърт Джонстад, Антъни Джонстън

## В ролите: Джеймс Макавой, Чарлийз Терон, София Бутела, Тил Швайгер, Йоханес Хаукур Йоханесон, Мартин Ангербауер,Джон Гудман, Атила Арпа, Барбара Зукова, Сам Харгрейв, Бил Скарсгард, Роланд Мьолер, Джеймс Фокнър, Тоби Джоунс, Еди Марсан

## Държава:: САЩ; Германия; Друга

## Година: 2017

## Дължина: 01:54:44

## Видео поток: Format : AVC
Format/Info : Advanced Video Codec
Format profile : High@L4.1
Format settings : CABAC / 5 Ref Frames
Format settings, CABAC : Yes
Format settings, RefFrames : 5 frames
Codec ID : V_MPEG4/ISO/AVC
Duration : 1 h 54 min
Bit rate : 9 400 kb/s
Width : 1 920 pixels
Height : 808 pixels
Display aspect ratio : 2.40:1
Frame rate mode : Constant
Frame rate : 23.976 (24000/1001) FPS
Color space : YUV
Chroma subsampling : 4:2:0
Bit depth : 8 bits
Scan type : Progressive
Bits/(Pixel*Frame) : 0.253
Stream size : 7.36 GiB (84%)
Writing library : x264 core 152 r2851 ba24899


## Аудио поток: Format : DTS
Format/Info : Digital Theater Systems
Mode : 16
Format settings, Endianness : Big
Codec ID : A_DTS
Duration : 1 h 54 min
Bit rate mode : Constant
Bit rate : 1 509 kb/s
Channel(s) : 6 channels
Channel positions : Front: L C R, Side: L R, LFE
Sampling rate : 48.0 kHz
Frame rate : 93.750 FPS (512 SPF)
Bit depth : 24 bits
Compression mode : Lossy
Stream size : 1.21 GiB (14%)
Language : English
Default : Yes
Forced : No


## Субтитри: в торента

## Линк към IMDB: http://www.imdb.com/title/tt2406566/?ref_=nv_sr_1

## Резюме: Ноември 1989. Комунизмът се руши, скоро ще падне и Берлинската стена. Но преди да се случи това трябва да бъде разрешена още една загадка. Преди две седмици агент под прикритие от MI6 е убит в Берлин. Той е пренасял информация, предоставена му в Източния блок – списък с всички агенти и шпиони, които работят в Берлин, независимо от това коя страна ги е вербувала.
Подобен списък обаче не е открит у него след смъртта му. Време е Лорейн Броутън, опитен шпионин, да се заеме с тази „бомба със закъснител”, като в историята не липсват акценти върху обществените вълнения, контра-шпионажа, отстъпление накриво и тайни покушения – и всичко това се случва, за да бъде открит въпросният ценен списък и да бъдат спасени британските агенти, включени в него…


## Друга информация:

















Категория Movies BR/HD-DVD
Оценка:
  • Currently 0.00/5
Rating: 0.0 out of 5.0 (Votes: 0) For your upload!

Размер 8.75 GB
Покажи / скрий файловете
2 files
Добавен 04/12/2017 - 22:35
Последно активен 15/12/2017 - 13:10
Свален 42 Път(и)
Пиъри Сийдъри: 7, Лийчъри: 1 = 8 Пиъри


Без коментар...