Реклама
Каталог
  iPhone
  Филми
      DVD-R
      XviD
      HDTV
      Сериали
      Формула 1
  Музика
      Песен
      Албум
      Клипове
  Игри
      PC
      Конзоли
  Програми
      Windows
      Linux
      MacOS
      PDA
  Книги
  XXX
  Други
  Всички
Форум
Теми:2,223
Отговори:257,778
Теми/Отговори:1 %
Торент детайли
Файл Измамнически Град (2020) / Rogue City - BDRip
СВАЛИ Измамнически Град (2020) / Rogue City - BDRip
Реклама
Инфо хeш 0c23855dc499cc9be69c082be986204d66d444c4
Описание

## Заглавие на Английски: Rogue City

## Заглавие на Български: Измамнически Град

## Релийз: BDRip

## Жанр: Драма; Екшън; Криминален; Трилър

## Режисьор: Оливие Марч

## В ролите: Ланик Готри, Станийз Мерхар, Каарис, Дейвид Бел, Патрик Каталифо, Жан Рено, Муса Масккари, Катрин Марчъл, Франсис Рено, Ерика Сент, Амбър Пиетри, Жан-Бунеруд, Барбара Опомалер, Клаудия Кардинале и др.

## Държава:: Франция

## Година: 2020

## Дължина: 01:56:00

## Видео поток: ID : 1
Format : AVC
Format/Info : Advanced Video Codec
Format profile : High@L3.1
Format settings : CABAC / 4 Ref Frames
Format settings, CABAC : Yes
Format settings, Reference frames : 4 frames
Codec ID : V_MPEG4/ISO/AVC
Duration : 1 h 56 min
Bit rate : 3 135 kb/s
Nominal bit rate : 859 kb/s
Width : 1 280 pixels
Height : 720 pixels
Display aspect ratio : 16:9
Frame rate mode : Variable
Frame rate : 24.000 FPS
Color space : YUV
Chroma subsampling : 4:2:0
Bit depth : 8 bits
Scan type : Progressive
Bits/(Pixel*Frame) : 0.142
Stream size : 2.55 GiB
Title : GalaxyRG - Rogue.City.2020.FRENCH.720p.NF.WEBRip.800MB.x264-GalaxyRG
Writing library : x264 core 157


## Аудио поток: ID : 2
Format : AAC LC
Format/Info : Advanced Audio Codec Low Complexity
Codec ID : A_AAC-2
Duration : 1 h 56 min
Bit rate : 640 kb/s
Channel(s) : 2 channels
Channel layout : L R
Sampling rate : 48.0 kHz
Frame rate : 46.875 FPS (1024 SPF)
Compression mode : Lossy
Stream size : 532 MiB (67%)
Title : GalaxyRG - Rogue.City.2020.FRENCH.720p.NF.WEBRip.800MB.x264-GalaxyRG
Writing library : Lavc58.35.100 aac
Language : French
Default : No
Forced : No


## Субтитри: от subsunacs.net

## Адрес на субтитрите (URL): https://subsunacs.net/subtitles/Rogue_City-140918/

## Резюме: Marseille. Everything begins with carnage worthy of the killing of the Bar du Telephone, caused by the men of the Orsoni clan. Richard Vronski, a cop of the anti-gang brigade with unorthodox methods, finds himself in charge of the investigation, facing his rivals of the BRB, commanded by Costa, a police major in the troubled actions. A new director, Divisional Commissioner Angel Leonetti arrives to tidy up Marseille and master the crazy dogs on his team. But all will quickly realize that you get nothing without sacrifices or risk taking. Especially when the Commissioner's daughter rubs with the anti-gang, that the men of the northern cities attack the Corsicans, that a key witness is assassinated while in police custody and that the police force sends his most bitter agent . So Vronski and his men, to save their skin, will skid on a fast go of the most dangerous .

## Друга информация:

Субтитри: Благодарение на Cyberbot subsunacs.net

IMDb : Линк към IMDb

ТРЕЙЛЪР : Линк към YOUTUBE





Категория Movies x264
Оценка:
  • Currently 5.00/5
Rating: 5.0 out of 5.0 (Votes: 2) For your upload!

Размер 796.97 MB
Покажи / скрий файловете
1 file
Добавен 20/01/2021 - 15:48
Последно активен 25/02/2021 - 11:36
Свален 153 Път(и)
Пиъри Сийдъри: 8, Лийчъри: 0 = 8 Пиъри


Без коментар...