Реклама
Каталог
  iPhone
  Филми
      DVD-R
      XviD
      HDTV
      Сериали
      Формула 1
  Музика
      Песен
      Албум
      Клипове
  Игри
      PC
      Конзоли
  Програми
      Windows
      Linux
      MacOS
      PDA
  Книги
  XXX
  Други
  Всички
Форум
Теми:2,154
Отговори:253,963
Теми/Отговори:1 %
Торент детайли
Файл Алиби точка ком (2017) / Alibi.com - BRRip
СВАЛИ Алиби точка ком (2017) / Alibi.com - BRRip
Реклама
Инфо хeш 1302a365497325fb2feed9cfa671c0fb7103f0d8
Описание




' ## Заглавие на Английски: Alibi.com

## Заглавие на Български: Алиби точка ком

## Релийз: BRRip

## Жанр: Комедия

## Режисьор: Philippe Lacheau

## Сценарист: Philippe Lacheau, Julien Arruti, Pierre Dudan

## В ролите:

Philippe Lacheau,
Élodie Fontan,
Julien Arruti ...


## Държава:: Франция

## Година: 2017

## Дължина: 01:29:42

## Видео поток:
Format : xvid
Codec ID : xvid
Duration : 1 h 29 min
Bit rate : 1 781 kb/s
Width : 720 pixels
Height : 388 pixels
Display aspect ratio : 1.85:1
Frame rate : 24.000 FPS
Scan type : Progressive
Bits/(Pixel*Frame) : 0.266
Stream size : 1.11 GiB (84%)


## Аудио поток:
Format : MPEG Audio
Format version : Version 1
Format profile : Layer 3
Mode : Joint stereo
Codec ID : 55
Codec ID/Hint : MP3
Duration : 1 h 29 min
Bit rate mode : Constant
Bit rate : 320 kb/s
Channel(s) : 2 channels
Sampling rate : 48.0 kHz
Compression mode : Lossy
Stream size : 204 MiB (15%)
Alignment : Aligned on interleaves
Interleave, duration : 24 ms (0.58 video frame)
Writing library : LAME3.99.5


## Субтитри: в торента

## Линк към IMDB: http://www.imdb.com/title/tt5657028/

## Резюме:

Трябва ви алиби запред жена ви и тайно да разпуснете с приятели на футболен мач? За това ще ви помогне агенцията за създаване на алиби. Необходима е извинителна бележка за училище? Агенцията! Решили сте да си вземете почивка от семейството в края на седмицата? Агенцията е на линия! Този бизнес проект е стартирал Грег със своя екип и вече е постигнал огромен успех.
Но срещата му с Фло - красива блондинка, която мрази мъже измамници, ще усложни живота на Грег. За начало ще му се наложи да крие с какво се занимава, а когато се запознава с родителите й, се оказва, че баща й е един от клиентите на агенцията, нещата наистина загрубяват...


## Друга информация:















Категория Movies XviD
Оценка:
  • Currently 5.00/5
Rating: 5.0 out of 5.0 (Votes: 8) For your upload!

Размер 1.32 GB
Покажи / скрий файловете
4 files
Добавен 14/07/2017 - 20:31
Последно активен 18/12/2017 - 07:55
Свален 1667 Път(и)
Пиъри Сийдъри: 16, Лийчъри: 0 = 16 Пиъри


taniaikrum (User) 21/07/2017 05:43:26 (21 weeks ago) Редактиране!
Хареса ми филма забавен е.