Реклама
Каталог
  iPhone
  Филми
      DVD-R
      XviD
      HDTV
      Сериали
      Формула 1
  Музика
      Песен
      Албум
      Клипове
  Игри
      PC
      Конзоли
  Програми
      Windows
      Linux
      MacOS
      PDA
  Книги
  XXX
  Други
  Всички
Форум
Теми:2,213
Отговори:256,813
Теми/Отговори:1 %
Торент детайли
Файл Аманда Нокс (2011) / Amanda Knox Murder on Trial in Italy - HDTV-Rip
СВАЛИ Аманда Нокс (2011) / Amanda Knox Murder on Trial in Italy - HDTV-Rip
Реклама
Инфо хeш 14744e4f4cd65b3517b5ea07b4b9a310c7d18c81
Описание




' ## Заглавие на Английски: Amanda Knox Murder on Trial in Italy

## Заглавие на Български: Аманда Нокс

## Релийз: HDTV-Rip

## Жанр: Драма; Криминален

## Режисьор: Робърт Дорнхелм

## Сценарист: Уенди Батълс

## В ролите: *******
Хейдън Пенитиер, Винсент Риота, Паоло Ромио, Аманда Фернандо Стивънс, Тимъти Мартин, Марша Гей Хардън и др.


## Държава:: САЩ

## Година: 2011

## Дължина: 01:25:49

## Официален сайт: http://www.mylifetime.com/movies/amanda-knox-murder-on-trial-in-italy

## Видео поток: *******
Format : AVI
Format/Info : Audio Video Interleave
File size : 701 MiB
Duration : 1h 25mn
Overall bit rate mode : Variable
Overall bit rate : 1 142 Kbps
Writing application : Nandub v1.0rc2
Writing library : Nandub build 1853/release
Video #0
ID : 0
Format : MPEG-4 Visual
Format profile : Advanced Simple@L5
Format settings, BVOP : 2
Format settings, QPel : No
Format settings, GMC : No warppoints
Format settings, Matrix : Default (H.263)
Codec ID : XVID
Codec ID/Hint : XviD
Duration : 1h 25mn
Bit rate : 996 Kbps
Width : 624 pixels
Height : 352 pixels
Display aspect ratio : 16:9
Frame rate : 23.976 fps
Color space : YUV
Chroma subsampling : 4:2:0
Bit depth : 8 bits
Scan type : Progressive
Compression mode : Lossy
Bits/(Pixel*Frame) : 0.189
Stream size : 612 MiB (87%)
Writing library : XviD 1.2.1 (UTC 2008-12-04)


## Аудио поток: *******
Audio #1
ID : 1
Format : MPEG Audio
Format version : Version 1
Format profile : Layer 3
Mode : Joint stereo
Mode extension : MS Stereo
Codec ID : 55
Codec ID/Hint : MP3
Duration : 1h 25mn
Bit rate mode : Variable
Bit rate : 128 Kbps
Channel(s) : 2 channels
Sampling rate : 48.0 KHz
Compression mode : Lossy
Stream size : 81.4 MiB (12%)
Alignment : Aligned on interleaves
Interleave, duration : 24 ms (0.58 video frame)
Interleave, preload duration : 437 ms
Writing library : LAME3.90.
Encoding settings : -m j -V 4 -q 2 -lowpass 17.6 --abr 128


## Субтитри: няма субтитри

## Линк към IMDB: http://www.imdb.com/title/tt1783413/

## Резюме: *******
На 1 ноември 2007-ма в Перуджа е открито тялото на Мередит Керхър. 21-годишното момиче е британка, която учи на разменни начала в местния университет.

Трупът й е открит в апартамента, който дели с още три момичета. Главни заподозрени за убийството са местният младеж Руди Геде, друг италианец – Рафаеле Солесито и американката Аманда Нокс, която е живяла заедно с Мередит. Те са обвинени в сексуално насилие и убийство.

На режисьорския стол е румънецът Робърт Дорнхелм /”Бохеми”/, а сред звездите във филма са топ красавицата Хейдън Пенетиер, носителката на „Оскар” Марша Гей Хардън /”Полък”/ и Винсънт Риота /”Девет”/.


## Друга информация:
Филма е качен по заявка
















Харесайте и страницата ни във фейсбук !




Категория Movies XviD
Оценка:
  • Currently 5.00/5
Rating: 5.0 out of 5.0 (Votes: 2) For your upload!

Размер 707.84 MB
Покажи / скрий файловете
2 files
Добавен 21/09/2012 - 09:59
Последно активен 13/04/2020 - 19:55
Свален 27 Път(и)
Пиъри Сийдъри: 0, Лийчъри: 0 = 0 Пиъри


emilokousa (SuperUser) 21/09/2012 14:53:42 (406 weeks ago) Редактиране!
здравейте филма е базиран на истинска история
страхотен е
забравих да добавя че Аманда и Рафаеле бяха освободени и оневинени през октомври миналата годинаsmile1.gif