Реклама
Каталог
  iPhone
  Филми
      DVD-R
      XviD
      HDTV
      Сериали
      Формула 1
  Музика
      Песен
      Албум
      Клипове
  Игри
      PC
      Конзоли
  Програми
      Windows
      Linux
      MacOS
      PDA
  Книги
  XXX
  Други
  Всички
Форум
Теми:2,152
Отговори:253,864
Теми/Отговори:1 %
Торент детайли
Файл Несправедливо обвинение (2010) / The Wronged Man - DVD-Rip
СВАЛИ Несправедливо обвинение (2010) / The Wronged Man - DVD-Rip
Реклама
Инфо хeш 198b30d63e8c3ef416ca1554ae622af4c76e55ed
Описание




' ## Заглавие на Английски: The Wronged Man

## Заглавие на Български: Несправедливо обвинение

## Релийз: DVD-Rip

## Жанр: Драма; Криминален; Друг

## Режисьор: Том Мaклъглин

## Сценарист: Тийна Бут

## В ролите:
Джулия Ормънд
Махершала Али
Чандлър Рийз и др..


## Държава:: САЩ

## Година: 2010

## Дължина: 01:25:12

## Видео поток:
Format : AVC
Format/Info : Advanced Video Codec
Format profile : Main@L3
Format settings, CABAC : Yes
Format settings, ReFrames : 1 frame
Codec ID : H264
Duration : 1 h 25 min
Bit rate : 1 681 kb/s
Width : 720 pixels
Height : 400 pixels
Display aspect ratio : 16:9
Frame rate mode : Variable
Frame rate : 25.000 FPS
Color space : YUV
Chroma subsampling : 4:2:0
Bit depth : 8 bits
Scan type : Progressive
Bits/(Pixel*Frame) : 0.233
Stream size : 1 020 MiB (86%)
Writing library : x264 core 129


## Аудио поток:
Format : MPEG Audio
Format version : Version 1
Format profile : Layer 3
Mode : Joint stereo
Codec ID : 55
Codec ID/Hint : MP3
Duration : 1 h 25 min
Bit rate mode : Constant
Bit rate : 256 kb/s
Channel(s) : 2 channels
Sampling rate : 48.0 kHz
Compression mode : Lossy
Stream size : 156 MiB (13%)
Alignment : Aligned on interleaves
Interleave, duration : 24 ms (0.60 video frame)


## Субтитри: в торента

## Линк към IMDB: http://www.imdb.com/title/tt1390543/

## Резюме:
Направен по действителен случай, филмът описва историята на несправедливо обвинен в изнасилване афроамериканец, чийто адвокат Джанет Грегъри се опитва да оневини в продължила 22 години битка за справедливостта.


## Друга информация:















Категория Movies XviD
Оценка:
  • Currently 0.00/5
Rating: 0.0 out of 5.0 (Votes: 0) For your upload!

Размер 1.16 GB
Покажи / скрий файловете
4 files
Добавен 10/07/2017 - 20:15
Последно активен 20/11/2017 - 09:48
Свален 169 Път(и)
Пиъри Сийдъри: 2, Лийчъри: 0 = 2 Пиъри


Без коментар...