Реклама
Каталог
  iPhone
  Филми
      DVD-R
      XviD
      HDTV
      Сериали
      Формула 1
  Музика
      Песен
      Албум
      Клипове
  Игри
      PC
      Конзоли
  Програми
      Windows
      Linux
      MacOS
      PDA
  Книги
  XXX
  Други
  Всички
Форум
Теми:2,151
Отговори:253,742
Теми/Отговори:1 %
Торент детайли
Файл Зад волана (2017) / Baby Driver - BDRip
СВАЛИ Зад волана (2017) / Baby Driver - BDRip
Реклама
Инфо хeш 26e74aba7bf5dffb381eead0f2817dd4ab22678e
Описание




' ## Заглавие на Английски: Baby Driver

## Заглавие на Български: Зад волана

## Релийз: BDRip

## Жанр: Екшън

## Режисьор: Едгар Райт

## Сценарист: Едгар Райт

## В ролите:
Ансел Елгорт,
Лили Джеймс,
Джейми Фокс,
Джон Бърнтол,
Кевин Спейси,
Ейса Гонсалес,
Марисол Кореа,
Джон Хам и др.


## Държава:: САЩ

## Година: 2017

## Дължина: 01:52:42

## Видео поток:
Format : xvid
Codec ID : xvid
Duration : 1 h 52 min
Bit rate : 1 607 kb/s
Width : 960 pixels
Height : 402 pixels
Display aspect ratio : 2.40:1
Frame rate : 23.976 (24000/1001) FPS
Scan type : Progressive
Bits/(Pixel*Frame) : 0.174
Stream size : 1.26 GiB (89%)


## Аудио поток:
Format : MPEG Audio
Format version : Version 1
Format profile : Layer 3
Mode : Joint stereo
Mode extension : MS Stereo
Codec ID : 55
Codec ID/Hint : MP3
Duration : 1 h 52 min
Bit rate mode : Constant
Bit rate : 192 kb/s
Channel(s) : 2 channels
Sampling rate : 48.0 kHz
Compression mode : Lossy
Stream size : 155 MiB (11%)
Alignment : Aligned on interleaves
Interleave, duration : 24 ms (0.58 video frame)


## Субтитри: от subs.sab.bz

## Адрес на субтитрите (URL): http://subs.sab.bz/index.php?act=download&attach_id=89617

## Линк към IMDB: http://www.imdb.com/title/tt3890160/?ref_=fn_al_tt_1

## Резюме:
“Той е добро момче, но зад волана е истински дявол.”

Това е Бейби (Ансел Елгорт), невинно изглеждащ шофьор на бегълци, който може да закара закоравели престъпници от точка А до точка Б, благодарение на своите дяволски умения и лична плейлиста, непрекъснато звучаща в главата му. Той разполага със свой маршрут за бягство, замислен според ритъма на определени мелодии, стигащи директно до ушите му от неговия добре зареден iPod. Мелодиите се обръщат в екстремно взети завои, превключване на предавки и непредвидими маневри, които отвеждат пътниците на най-голямото пътуване в живота им.

Комбинацията между високи скорости и култови песни превръща ЗАД ВОЛАНА в истинска експлозия от различни жанрове, един абсолютно уникален екшън трилър, дело на сценариста-режисьор Едгар Райт.


## Друга информация:















Категория Movies XviD
Оценка:
  • Currently 5.00/5
Rating: 5.0 out of 5.0 (Votes: 5) For your upload!

Размер 1.43 GB
Покажи / скрий файловете
4 files
Добавен 17/09/2017 - 11:21
Последно активен 21/10/2017 - 07:29
Свален 1634 Път(и)
Пиъри Сийдъри: 59, Лийчъри: 0 = 59 Пиъри


Без коментар...