Реклама
Каталог
  iPhone
  Филми
      DVD-R
      XviD
      HDTV
      Сериали
      Формула 1
  Музика
      Песен
      Албум
      Клипове
  Игри
      PC
      Конзоли
  Програми
      Windows
      Linux
      MacOS
      PDA
  Книги
  XXX
  Други
  Всички
Форум
Теми:2,154
Отговори:253,949
Теми/Отговори:1 %
Торент детайли
Файл Дюнкерк (2017) / Dunkirk - BluRay Disc
СВАЛИ Дюнкерк (2017) / Dunkirk - BluRay Disc
Реклама
Инфо хeш 310a7e7e4269193556a4e9858f30a26bd3d3acbc
Описание




' ## Заглавие на Английски: Dunkirk

## Заглавие на Български: Дюнкерк

## Релийз: BluRay Disc

## Жанр: Военен; Драма; Екшън; Исторически; Трилър

## Режисьор: Кристофър Нолан

## Сценарист: Кристофър Нолан

## В ролите: Бари Кеоган, Джак Лоудън, Били Хоул, Мики Колинс, Боби Локууд, Том Нолан, Анайрин Барнард, Дамиен Бонар, Марк Райлънс, Кенет Брана, Килиън Мърфи, Джеймс Д'Арси, Том Харди, Фион Уайтхед, Лий Армстронг, Джеймс Блоор, Том Глин-Карни, Люк Томпсън, Майкъл Бийл, Константин Балсан, Калъм Блейк, Дийн Ридж, Уил Атънбъроу

## Държава:: САЩ; Франция; Великобритания; Друга

## Година: 2017

## Дължина: 01:46:38

## Видео поток: Format : AVC
Format/Info : Advanced Video Codec
Format profile : High@L4.1
Format settings : CABAC / 4 Ref Frames
Format settings, CABAC : Yes
Format settings, RefFrames : 4 frames
Codec ID : V_MPEG4/ISO/AVC
Duration : 1 h 46 min
Bit rate : 10.2 Mb/s
Width : 1 920 pixels
Height : 1 080 pixels
Display aspect ratio : 16:9
Frame rate mode : Constant
Frame rate : 23.976 (24000/1001) FPS
Color space : YUV
Chroma subsampling : 4:2:0
Bit depth : 8 bits
Scan type : Progressive
Bits/(Pixel*Frame) : 0.206
Stream size : 7.61 GiB (87%)
Writing library : x264 core 152 r2851 ba24899


## Аудио поток: Format : DTS
Format/Info : Digital Theater Systems
Mode : 16
Format settings, Endianness : Big
Codec ID : A_DTS
Duration : 1 h 46 min
Bit rate mode : Constant
Bit rate : 1 509 kb/s
Channel(s) : 6 channels
Channel positions : Front: L C R, Side: L R, LFE
Sampling rate : 48.0 kHz
Frame rate : 93.750 FPS (512 SPF)
Bit depth : 24 bits
Compression mode : Lossy
Stream size : 1.12 GiB (13%)
Language : English
Default : Yes
Forced : No


## Субтитри: в торента

## Линк към IMDB: http://www.imdb.com/title/tt5013056/

## Резюме: Режисьорът Кристофър Нолан („Интерстелар“, „Генезис“, трилогията „Черният рицар“) представя епичния екшън трилър Дюнкерк. Стотици хиляди британски и съюзнически войски са обкръжени от вражески сили. Хванати в капан на брега, изтласкани към морето, те са в безизходица, а противниковата армия приближава.
Действието се развива по суша, вода и въздух. Изтребителите на кралските военновъздушни сили Спитфайър атакуват врага от небето над Ла Манш, опитвайки се да предпазят беззащитните мъже. Междувременно стотици малки лодки, натоварени с военни и цивилни, отчаяно рискуват живота си в надпревара с времето, за да спасят поне част от армията.


## Друга информация:















Категория Movies BR/HD-DVD
Оценка:
  • Currently 5.00/5
Rating: 5.0 out of 5.0 (Votes: 2) For your upload!

Размер 8.74 GB
Покажи / скрий файловете
2 files
Добавен 06/12/2017 - 12:42
Последно активен 15/12/2017 - 12:37
Свален 51 Път(и)
Пиъри Сийдъри: 3, Лийчъри: 0 = 3 Пиъри


lord_milev (V.I.P.) 08/12/2017 08:37:32 (1 week ago) Редактиране!
Ето и моите субтитри - ЦЪК