Реклама
Каталог
  iPhone
  Филми
      DVD-R
      XviD
      HDTV
      Сериали
      Формула 1
  Музика
      Песен
      Албум
      Клипове
  Игри
      PC
      Конзоли
  Програми
      Windows
      Linux
      MacOS
      PDA
  Книги
  XXX
  Други
  Всички
Форум
Теми:2,214
Отговори:257,001
Теми/Отговори:1 %
Торент детайли
Файл Окована страст (1983) / Chained Heat (Unrated & Remastered DVD9)
СВАЛИ Окована страст (1983) / Chained Heat (Unrated & Remastered DVD9)
Реклама
Инфо хeш 360c3cea92ac5c44ac1394b3a00918fcf10db641
Описание

## Заглавие на Английски: Chained Heat (Unrated & Remastered DVD9)

## Заглавие на Български: Окована страст

## Жанр: Драма; Екшън; Еротичен

## Режисьор: Пол Никълъс

## В ролите: Линда Блеър, Джон Върнан, Сибил Данинг, Тамара Добсън, Стела Стивънс, Хенри Силва, Робърт Миано и др.

## Държава:: САЩ; Германия

## Година: 1983

## Дължина: 98 минути

## Видео поток: ID : 224 (0xE0)
Format : MPEG Video
Format version : Version 2
Format profile : Main@Main
Format settings, BVOP : Yes
Format settings, Matrix : Custom
Duration : 20mn 46s
Bit rate mode : Variable
Bit rate : 6 561 Kbps
Maximum bit rate : 9 800 Kbps
Width : 720 pixels
Height : 480 pixels
Display aspect ratio : 16:9
Frame rate : 23.976 fps
Standard : NTSC
Color space : YUV
Chroma subsampling : 4:2:0
Bit depth : 8 bits
Scan type : Progressive
Scan order : 2:3 Pulldown
Compression mode : Lossy
Bits/(Pixel*Frame) : 0.792
Stream size : 975 MiB (95%)


## Аудио поток: ID : 189 (0xBD)-128 (0x80)
Format : AC-3
Format/Info : Audio Coding 3
Mode extension : CM (complete main)
Muxing mode : DVD-Video
Duration : 20mn 46s
Bit rate mode : Constant
Bit rate : 192 Kbps
Channel(s) : 2 channels
Channel positions : Front: L R
Sampling rate : 48.0 KHz
Bit depth : 16 bits
Compression mode : Lossy
Stream size : 28.5 MiB (3%)


## Субтитри: няма субтитри

## Линк към IMDB: http://www.imdb.com/title/tt0085318/

## Резюме: Култов филм на тема Жени в затвора с блестящото изпълнение на Линда Блеър в главната роля.
Карол(Линда Блеър) е млада жена осъдена на 18 месеца затвор за убийството на мъж при самозащита. Затворът се оказва пълен с упадък, корупция и мръсотия. Затворничките са садистично измъчвани, изнасилвани и продавани. Зад това стои первезният директор и неговата свита надзиратели. Освен това затворът е раздиран от расово напрежение, тъй като затворничките са раделени на черни и бели. Вариантите пред тях са или да продължат да се избиват помежду си или да се обединят срещу управлението на затвора...


## Друга информация:







Този рилийз на филма е единствено за потребителите на p2pbg.com.забранявам качването му по други сайтове.


Категория Movies DVD
Оценка:
  • Currently 0.00/5
Rating: 0.0 out of 5.0 (Votes: 0) For your upload!

Размер 6.49 GB
Покажи / скрий файловете
40 files
Добавен 28/12/2014 - 14:53
Последно активен 10/08/2020 - 04:31
Свален 13 Път(и)
Пиъри Сийдъри: 0, Лийчъри: 1 = 1 Пиъри


Без коментар...