Реклама
Каталог
  iPhone
  Филми
      DVD-R
      XviD
      HDTV
      Сериали
      Формула 1
  Музика
      Песен
      Албум
      Клипове
  Игри
      PC
      Конзоли
  Програми
      Windows
      Linux
      MacOS
      PDA
  Книги
  XXX
  Други
  Всички
Форум
Теми:2,154
Отговори:253,949
Теми/Отговори:1 %
Торент детайли
Файл Бодигард на убиеца (2017) / The Hitman's Bodyguard - BluRay Disc
СВАЛИ Бодигард на убиеца (2017) / The Hitman's Bodyguard - BluRay Disc
Реклама
Инфо хeш 395c30c13d8f5907df666ceb00c22be3590bd0cf
Описание




' ## Заглавие на Английски: The Hitman's Bodyguard

## Заглавие на Български: Бодигард на убиеца

## Релийз: BluRay Disc

## Жанр: Екшън; Комедия

## Режисьор: Патрик Хюз

## Сценарист: Том О'Конър

## В ролите: Салма Хайек, Самюъл Л. Джаксън, Раян Рейнълдс, Гари Олдман, Ричард Е. Грант, Жоаким Де Алмейда, Тцуваюки Саотоме, Род Халед, Елоди Юнг, Юри Колоколников, Надя Конакчиева, Бари Атсма, Рой Хил

## Държава:: САЩ; България; Друга

## Година: 2017

## Дължина: 01:58:17

## Видео поток: Format : AVC
Format/Info : Advanced Video Codec
Format profile : High@L4.1
Format settings : CABAC / 5 Ref Frames
Format settings, CABAC : Yes
Format settings, RefFrames : 5 frames
Codec ID : V_MPEG4/ISO/AVC
Duration : 1 h 58 min
Bit rate : 9 944 kb/s
Width : 1 920 pixels
Height : 808 pixels
Display aspect ratio : 2.40:1
Frame rate mode : Constant
Frame rate : 23.976 (24000/1001) FPS
Color space : YUV
Chroma subsampling : 4:2:0
Bit depth : 8 bits
Scan type : Progressive
Bits/(Pixel*Frame) : 0.267
Stream size : 8.04 GiB (92%)
Writing library : x264 core 152 r2851 ba24899


## Аудио поток: Format : AC-3
Format/Info : Audio Coding 3
Format settings, Endianness : Big
Codec ID : A_AC3
Duration : 1 h 58 min
Bit rate mode : Constant
Bit rate : 640 kb/s
Channel(s) : 6 channels
Channel positions : Front: L C R, Side: L R, LFE
Sampling rate : 48.0 kHz
Frame rate : 31.250 FPS (1536 SPF)
Bit depth : 16 bits
Compression mode : Lossy
Stream size : 541 MiB (6%)
Language : English
Service kind : Complete Main
Default : Yes
Forced : No


## Субтитри: в торента

## Линк към IMDB: http://www.imdb.com/title/tt1959563/

## Резюме: Възрастният убиец Дариус Кинкейд (Самюъл Л. Джаксън), известен със своя ужасен нрав, решава да даде показания против бившия си работодател. Същевременно той не може да обезпечи своята безопасност сам и затова се обръща за помощ към младия и способен телохранител – агентът, занимаващ се със защита на свидетели Майкъл Брус (Раян Рейнълдс).
В продължение на 24 часа, двамата които никак не се понасят, трябва да се кооперират, за да избягат от Англия в Хага. Скоро ситуацията се усложнява още повече, когато на пътя на двамата застава кръвожадния източно-европейски диктатор Владислав Духович (Гари Олдман).


## Друга информация:















Категория Movies BR/HD-DVD
Оценка:
  • Currently 0.00/5
Rating: 0.0 out of 5.0 (Votes: 0) For your upload!

Размер 8.74 GB
Покажи / скрий файловете
2 files
Добавен 03/12/2017 - 17:57
Последно активен 15/12/2017 - 12:58
Свален 22 Път(и)
Пиъри Сийдъри: 4, Лийчъри: 0 = 4 Пиъри


Без коментар...