Реклама
Каталог
  iPhone
  Филми
      DVD-R
      XviD
      HDTV
      Сериали
      Формула 1
  Музика
      Песен
      Албум
      Клипове
  Игри
      PC
      Конзоли
  Програми
      Windows
      Linux
      MacOS
      PDA
  Книги
  XXX
  Други
  Всички
Форум
Теми:2,138
Отговори:249,418
Теми/Отговори:1 %
Торент детайли
Файл Бели мадами (2004) / White Chicks - HD-DVD
СВАЛИ Бели мадами (2004) / White Chicks - HD-DVD
Реклама
Инфо хeш 437b62a0763944f668947b6f3434f9a3ea5b1a5c
Описание

## Заглавие на Английски: White Chicks

## Заглавие на Български: Бели мадами

## Релийз: HD-DVD

## Жанр: Комедия

## Режисьор: Keenen Ivory Wayans

## Сценарист: Keenen Ivory Wayans

## В ролите: Marlon Wayans, Shawn Wayans, Busy Philipps

## Държава:: САЩ

## Година: 2004

## Дължина: 01:48:44

## Видео поток: Video
ID : 1
Format : AVC
Format/Info : Advanced Video Codec
Format profile : High@L4
Format settings, CABAC : Yes
Format settings, ReFrames : 4 frames
Format settings, GOP : N=2
Codec ID : V_MPEG4/ISO/AVC
Duration : 1 h 48 min
Bit rate : 5 036 kb/s
Width : 1 916 pixels
Height : 1 076 pixels
Display aspect ratio : 16:9
Frame rate mode : Constant
Frame rate : 23.976 FPS
Color space : YUV
Chroma subsampling : 4:2:0
Bit depth : 8 bits
Scan type : Progressive
Bits/(Pixel*Frame) : 0.102
Stream size : 3.82 GiB (91%)
Title : White.Chicks.2004.1080p
Language : English
Default : Yes
Forced : No
Color range : Limited
Color primaries : BT.709
Transfer characteristics : BT.709
Matrix coefficients : BT.709


## Аудио поток: Audio
ID : 2
Format : AC-3
Format/Info : Audio Coding 3
Mode extension : CM (complete main)
Format settings, Endianness : Big
Codec ID : A_AC3
Duration : 1 h 48 min
Bit rate mode : Constant
Bit rate : 384 kb/s
Channel(s) : 6 channels
Channel positions : Front: L C R, Side: L R, LFE
Sampling rate : 48.0 kHz
Frame rate : 31.250 FPS (1536 spf)
Compression mode : Lossy
Stream size : 299 MiB (7%)
Title : White.Chicks.2004.1080p
Language : English
Default : Yes
Forced : No


## Субтитри: вградени във видео файла

## Резюме: Кийнън Айвъри Уейънс – режисьорът на „Страшен филм” представя БЕЛИ МАДАМИ, филм, който ще ви побърка от смях, с комиците Шон Уейънс и Марлон Уейънс.

Какво се случва, когато двама непохватни агенти от ФБР се дегизират като свръхбогати бели „принцеси”, за да се внедрят във висшето общество? Бам!

Неистови лудории и безкрайни майтапи, докато злочестите братя извървят пътя от строгите костюми на агенти до последния модел прашки... с достойнство! Модни фиести, хардкор купони и ужасно смешни диско състезания сред каймака на висшето общество поддържат щурото забавление от началото до края на „Бели мадами”... двама братя, които искат да останат верни на себе си. Донякъде.


Категория Movies BR/HD-DVD
Оценка:
  • Currently 5.00/5
Rating: 5.0 out of 5.0 (Votes: 1) For your upload!

Размер 4.20 GB
Покажи / скрий файловете
1 file
Добавен 08/01/2017 - 06:55
Последно активен 28/04/2017 - 14:18
Свален 52 Път(и)
Пиъри Сийдъри: 0, Лийчъри: 0 = 0 Пиъри


pleven12 (User) 09/01/2017 06:46:08 (15 weeks ago) Редактиране!
Къртачка сваляйте няма да съжелявате! 5++++ за ъпчето!grin.gifgrin.gifgrin.gifgrin.gifgrin.gif