Реклама
Каталог
  iPhone
  Филми
      DVD-R
      XviD
      HDTV
      Сериали
      Формула 1
  Музика
      Песен
      Албум
      Клипове
  Игри
      PC
      Конзоли
  Програми
      Windows
      Linux
      MacOS
      PDA
  Книги
  XXX
  Други
  Всички
Форум
Теми:2,157
Отговори:254,048
Теми/Отговори:1 %
Торент детайли
Файл Чужденецът (2017) / The Foreigner - BluRay Disc
СВАЛИ Чужденецът (2017) / The Foreigner - BluRay Disc
Реклама
Инфо хeш 63d399fcb2031a4a7653dc1e5594b831e2f947e8
Описание




' ## Заглавие на Английски: The Foreigner

## Заглавие на Български: Чужденецът

## Релийз: BluRay Disc

## Жанр: Драма; Екшън; Криминален; Мистерия; Трилър

## Режисьор: Мартин Кембъл

## В ролите: Джеки Чан, Пиърс Броснан, Чарли Мърфи, Кейти Лун, Дърмът Краули, Рори Флек Бърн, Саймън Кунц, Пипа Бенет-Уорнър, Глен Уебстър

## Държава:: САЩ; Великобритания; Друга

## Година: 2017

## Дължина: 01:53:52

## Видео поток: Format : AVC
Format/Info : Advanced Video Codec
Format profile : High@L4.1
Format settings : CABAC / 5 Ref Frames
Format settings, CABAC : Yes
Format settings, RefFrames : 5 frames
Codec ID : V_MPEG4/ISO/AVC
Duration : 1 h 53 min
Bit rate : 9 486 kb/s
Width : 1 920 pixels
Height : 808 pixels
Display aspect ratio : 2.40:1
Frame rate mode : Constant
Frame rate : 23.976 FPS
Color space : YUV
Chroma subsampling : 4:2:0
Bit depth : 8 bits
Scan type : Progressive
Bits/(Pixel*Frame) : 0.255
Stream size : 7.54 GiB (86%)
Writing library : x264 core 152 r2851 ba24899


## Аудио поток: Format : DTS
Format/Info : Digital Theater Systems
Mode : 16
Format settings, Endianness : Big
Codec ID : A_DTS
Duration : 1 h 53 min
Bit rate mode : Constant
Bit rate : 1 509 kb/s
Channel(s) : 6 channels
Channel positions : Front: L C R, Side: L R, LFE
Sampling rate : 48.0 kHz
Frame rate : 93.750 FPS (512 SPF)
Bit depth : 24 bits
Compression mode : Lossy
Stream size : 1.20 GiB (14%)
Language : English
Default : Yes
Forced : No


## Субтитри: в торента

## Линк към IMDB: http://www.imdb.com/title/tt1615160/?ref_=nv_sr_3

## Резюме: Скромният собственик на ресторант (Джеки Чан) в китайския квартал в Лондон се отправя на мисия да открие подивели ирландски радикалисти, отговорни за смъртта на дъщеря му. Той е принуден да пристъпи моралните и физическите си граници, за да надделее на мистериозната чужда сила (Пиърс Броснан), стояща между него и истината.

## Друга информация:















Категория Movies BR/HD-DVD
Оценка:
  • Currently 0.00/5
Rating: 0.0 out of 5.0 (Votes: 0) For your upload!

Размер 8.74 GB
Покажи / скрий файловете
2 files
Добавен 05/01/2018 - 23:43
Последно активен 16/01/2018 - 10:31
Свален 41 Път(и)
Пиъри Сийдъри: 1, Лийчъри: 0 = 1 Пиъри


fardin4o (User) 06/01/2018 15:01:59 (1 week ago) Редактиране!
да ви попитам има ли си мену блурая на новиа филмconfused.gif
kuzmanov78 (User) 08/01/2018 23:35:09 (1 week ago) Редактиране!
Според теб фахрадинчо 9 гиги е рипа дали има?tongue.giftongue.giftongue.gif