Реклама
Каталог
  iPhone
  Филми
      DVD-R
      XviD
      HDTV
      Сериали
      Формула 1
  Музика
      Песен
      Албум
      Клипове
  Игри
      PC
      Конзоли
  Програми
      Windows
      Linux
      MacOS
      PDA
  Книги
  XXX
  Други
  Всички
Форум
Теми:2,216
Отговори:257,438
Теми/Отговори:1 %
Торент детайли
Файл Момичешки Правила (2020) / American Pie( 2020 )
СВАЛИ Момичешки Правила (2020) / American Pie( 2020 )
Реклама
Инфо хeш 6426541a7d51162f3599361a3230780dfa0d640b
Описание




' ## Заглавие на Английски: American Pie( 2020 )

## Заглавие на Български: Момичешки Правила

## Жанр: Комедия

## Режисьор: Майк Елиът

## Сценарист: Блейн Уивър , Дейвид Х. Щайнбърг

## В ролите: Мадисън Петис ... Ани Уотсън
Лизи Бродуей... Стефани Стифлър
Наташа Бехнам ...Мишел
Пайпър Кърда ...Кайла
Дарън Барнет ...Грант
и други.


## Държава:: САЩ

## Година: 2020

## Дължина: 01:35:30

## Видео поток: Video
ID : 1
Format : AVC
Format/Info : Advanced Video Codec
Format profile : High@L3
Format settings : CABAC / 4 Ref Frames
Format settings, CABAC : Yes
Format settings, Reference frames : 4 frames
Codec ID : V_MPEG4/ISO/AVC
Duration : 1 h 35 min
Bit rate : 1 700 kb/s
Width : 720 pixels
Height : 392 pixels
Display aspect ratio : 1.85:1
Frame rate mode : Constant
Frame rate : 23.976 (24000/1001) FPS
Color space : YUV
Chroma subsampling : 4:2:0
Bit depth : 8 bits
Scan type : Progressive
Bits/(Pixel*Frame) : 0.251
Stream size : 1.15 GiB (79%)
Writing library : x264 core 160 r3000 33f9e14
Encoding settings : cabac=1 / ref=3 / deblock=1:-1:-1 / analyse=0x3:0x113 / me=hex / subme=7 / psy=1 / psy_rd=1.00:0.15 / mixed_ref=1 / me_range=16 / chroma_me=1 / trellis=1 / 8x8dct=1 / cqm=0 / deadzone=21,11 / fast_pskip=1 / chroma_qp_offset=-3 / threads=12 / lookahead_threads=2 / sliced_threads=0 / nr=0 / decimate=1 / interlaced=0 / bluray_compat=0 / constrained_intra=0 / bframes=3 / b_pyramid=2 / b_adapt=1 / b_bias=0 / direct=1 / weightb=1 / open_gop=0 / weightp=2 / keyint=250 / keyint_min=23 / scenecut=40 / intra_refresh=0 / rc_lookahead=40 / rc=abr / mbtree=1 / bitrate=1700 / ratetol=1.0 / qcomp=0.60 / qpmin=0 / qpmax=69 / qpstep=4 / ip_ratio=1.40 / aq=1:1.00
Default : Yes
Forced : No


## Аудио поток: Audio
ID : 2
Format : AC-3
Format/Info : Audio Coding 3
Commercial name : Dolby Digital
Codec ID : A_AC3
Duration : 1 h 35 min
Bit rate mode : Constant
Bit rate : 448 kb/s
Channel(s) : 6 channels
Channel layout : L R C LFE Ls Rs
Sampling rate : 48.0 kHz
Frame rate : 31.250 FPS (1536 SPF)
Compression mode : Lossy
Stream size : 306 MiB (21%)
Language : Latin
Service kind : Complete Main
Default : No
Forced : No


## Субтитри: в торента

## Линк към IMDB: http://www.imdb.com/title/tt11771594/

## Резюме: Това е последната година в Иийст Грейт Фолс. Ани, Кайла, Мишел и Стефани решават да впрегнат момичешката сила и да се обединят, за да получат това което искат през последната година от гимназията.

Преводач: МЪДРИЯ ДЖО


Категория Movies DVD
Оценка:
  • Currently 5.00/5
Rating: 5.0 out of 5.0 (Votes: 2) For your upload!

Размер 1.45 GB
Покажи / скрий файловете
2 files
Добавен 04/10/2020 - 16:31
Последно активен 29/10/2020 - 00:52
Свален 221 Път(и)
Пиъри Сийдъри: 6, Лийчъри: 0 = 6 Пиъри


Без коментар...