Реклама
Каталог
  iPhone
  Филми
      DVD-R
      XviD
      HDTV
      Сериали
      Формула 1
  Музика
      Песен
      Албум
      Клипове
  Игри
      PC
      Конзоли
  Програми
      Windows
      Linux
      MacOS
      PDA
  Книги
  XXX
  Други
  Всички
Форум
Теми:2,177
Отговори:255,207
Теми/Отговори:1 %
Торент детайли
Файл То (2017) / It - BluRay Disc
СВАЛИ То (2017) / It - BluRay Disc
Реклама
Инфо хeш 6e21b9f32e0cb351bda8d9b90afa6838e0b48a97
Описание




' ## Заглавие на Английски: It

## Заглавие на Български: То

## Релийз: BluRay Disc

## Жанр: Драма; Трилър; Ужаси

## Режисьор: Андреас Мускети

## В ролите: Уил Поултър, Оуен Тиг, Никълъс Хамилтън, Бил Скарсгард, Фин Улфхард, Джейдън Либърхър, Хавие Боте, Стивън Уилямс, Меган Чарпентиър, Джереми Рей Тейлър, София Лилис, Чоузън Джейкъбс, Джак Дилън Грейзър, Уаят Олеф, Джейк Сим, Логан Томпсън, Джейсън Робърт Скот, Стивън Богарт, Стюарт Хюс, Джефри Поунсет

## Държава:: САЩ; Канада

## Година: 2017

## Дължина: 02:14:42

## Видео поток: Format : AVC
Format/Info : Advanced Video Codec
Format profile : High@L4.1
Format settings : CABAC / 5 Ref Frames
Format settings, CABAC : Yes
Format settings, RefFrames : 5 frames
Codec ID : V_MPEG4/ISO/AVC
Duration : 2 h 14 min
Bit rate : 11.3 Mb/s
Width : 1 920 pixels
Height : 800 pixels
Display aspect ratio : 2.40:1
Frame rate mode : Constant
Frame rate : 23.976 (24000/1001) FPS
Color space : YUV
Chroma subsampling : 4:2:0
Bit depth : 8 bits
Scan type : Progressive
Bits/(Pixel*Frame) : 0.306
Stream size : 10.4 GiB (86%)
Writing library : x264 core 152 r2851+11 (master: ba24899 / tmod: 1e92fb1) [X86_64]


## Аудио поток: Format : DTS
Format/Info : Digital Theater Systems
Mode : 16
Format settings, Endianness : Big
Codec ID : A_DTS
Duration : 2 h 14 min
Bit rate mode : Constant
Bit rate : 1 509 kb/s
Channel(s) : 6 channels
Channel positions : Front: L C R, Side: L R, LFE
Sampling rate : 48.0 kHz
Frame rate : 93.750 FPS (512 SPF)
Bit depth : 24 bits
Compression mode : Lossy
Stream size : 1.42 GiB (12%)
Language : English
Default : Yes
Forced : No


## Субтитри: в торента

## Линк към IMDB: http://www.imdb.com/title/tt1396484/

## Резюме: Филмът разказва историята на седем невръстни приятели от градчето Дери, в американския щат Мейн, които се наричат Клуба на загубеняците. Всеки от тях е бил отлъчен от обществото по една или друга причина, всеки е набелязан от местните хулигани... и всеки е станал свидетел как вътрешните му страхове оживяват в лицето на древен, променящ формата си, хищник, който могат единствено да нарекат То. От самото си създаване, градчето е ловно поле на съществото, което излиза от канализацията на всеки 27 години, за да се храни със страховете на набелязаната си плячка, а именно децата на Дери. Събирайки се по време на ужасяващо и изпълнено с вълнения лято, Загубеняците се сближават помежду си, за да превъзмогнат собствените си страхове и да спрат нов цикъл с убийства, започнал в един дъждовен ден с малко момченце, гонещо хартиената си лодка, носеща се към канализационната шахта и ... право в ръцете на Пениуайз, клоунът.

## Друга информация:













Категория Movies BR/HD-DVD
Оценка:
  • Currently 0.00/5
Rating: 0.0 out of 5.0 (Votes: 0) For your upload!

Размер 12.03 GB
Покажи / скрий файловете
2 files
Добавен 23/12/2017 - 23:31
Последно активен 17/06/2018 - 00:46
Свален 9 Път(и)
Пиъри Сийдъри: 0, Лийчъри: 0 = 0 Пиъри


Без коментар...