Реклама
Каталог
  iPhone
  Филми
      DVD-R
      XviD
      HDTV
      Сериали
      Формула 1
  Музика
      Песен
      Албум
      Клипове
  Игри
      PC
      Конзоли
  Програми
      Windows
      Linux
      MacOS
      PDA
  Книги
  XXX
  Други
  Всички
Форум
Теми:2,188
Отговори:255,463
Теми/Отговори:1 %
Торент детайли
Файл Черен сняг (2017) / Black Snow - BluRay Disc
СВАЛИ Черен сняг (2017) / Black Snow - BluRay Disc
Реклама
Инфо хeш 76f7057366889cbb0a0c7f4fec379b76ff60aecb
Описание




' ## Заглавие на Английски: Black Snow

## Заглавие на Български: Черен сняг

## Релийз: BluRay Disc

## Жанр: Драма; Криминален; Мистерия; Трилър

## Режисьор: Мартин Ходара

## В ролите: Лайа Коста, Рикардо Дарин, Долорес Фонци, Андрес Ерера, Микел Иглесиас, Иван Луенго, Федерико Лупи, Бил Монторо, Лиа О’Прей

## Държава:: Испания; Друга

## Година: 2017

## Дължина: 01:30:58

## Видео поток: Format : AVC
Format/Info : Advanced Video Codec
Format profile : High@L4.1
Format settings, CABAC : Yes
Format settings, ReFrames : 4 frames
Codec ID : V_MPEG4/ISO/AVC
Duration : 1h 30mn
Bit rate : 8 811 Kbps
Width : 1 808 pixels
Height : 1 080 pixels
Display aspect ratio : 5:3
Frame rate mode : Constant
Frame rate : 24.000 fps
Color space : YUV
Chroma subsampling : 4:2:0
Bit depth : 8 bits
Scan type : Progressive
Bits/(Pixel*Frame) : 0.188
Stream size : 5.60 GiB (85%)
Writing library : x264 core 152 r2851 ba24899


## Аудио поток: Format : DTS
Format/Info : Digital Theater Systems
Mode : 16
Format settings, Endianness : Big
Codec ID : A_DTS
Duration : 1h 30mn
Bit rate mode : Constant
Bit rate : 1 509 Kbps
Channel(s) : 6 channels
Channel positions : Front: L C R, Side: L R, LFE
Sampling rate : 48.0 KHz
Frame rate : 93.750 fps (512 spf)
Bit depth : 24 bits
Compression mode : Lossy
Stream size : 982 MiB (15%)
Language : Spanish
Default : Yes
Forced : No


## Субтитри: в торента

## Линк към IMDB: http://www.imdb.com/title/tt5614612/

## Резюме: Приличен мистериозен трилър с много обрати и напрегнат финал. Това е филм за Маркос и съпругата му Лора, които се завръщат в Аржентина, за да погребват пепелта на баща си. Там Маркос получава добро предложение от високопоставен бизнесмен на име Сепия. Но Маркос трябва да убеди брат си, самотния и груб Салвадор, да продаде къщата и земята, които наследяват от наскоро починалия си баща. Няколко десетилетия по-късно, след като Салвадор е обвиняван в убийство, в сегашно време е отмъстителен и зъл човек. Но нещата се влошават, когато се появяват някои тъмни тайни.

## Друга информация:









Категория Movies BR/HD-DVD
Оценка:
  • Currently 0.00/5
Rating: 0.0 out of 5.0 (Votes: 0) For your upload!

Размер 6.56 GB
Покажи / скрий файловете
2 files
Добавен 29/12/2017 - 23:32
Последно активен 15/07/2018 - 08:31
Свален 106 Път(и)
Пиъри Сийдъри: 0, Лийчъри: 0 = 0 Пиъри


Без коментар...