Реклама
Каталог
  iPhone
  Филми
      DVD-R
      XviD
      HDTV
      Сериали
      Формула 1
  Музика
      Песен
      Албум
      Клипове
  Игри
      PC
      Конзоли
  Програми
      Windows
      Linux
      MacOS
      PDA
  Книги
  XXX
  Други
  Всички
Форум
Теми:2,166
Отговори:254,707
Теми/Отговори:1 %
Торент детайли
Файл Снежният човек (2017) / The Snowman - BluRay Disc
СВАЛИ Снежният човек (2017) / The Snowman - BluRay Disc
Реклама
Инфо хeш 78cc867dc9d87504d6090e9797832484440e20c8
Описание




' ## Заглавие на Английски: The Snowman

## Заглавие на Български: Снежният човек

## Релийз: BluRay Disc

## Жанр: Драма; Криминален; Мистерия; Трилър; Ужаси

## Режисьор: Томас Алфредсон

## Сценарист: Хосеин Амини, Матю Майкъл Карнахан

## В ролите: Майкъл Фасбендър, Ребека Фъргюсън, Ю Несбьо, Ирина Кара,лои Севини, Алек Нюман, Джеймс Д'Арси, Тоби Джоунс, Шарлот Генсбур, Вал Килмър, Джей Кей Симънс

## Държава:: САЩ; Великобритания; Друга

## Година: 2017

## Дължина: 01:59:15

## Видео поток: Format : AVC
Format/Info : Advanced Video Codec
Format profile : High@L4.1
Format settings : CABAC / 4 Ref Frames
Format settings, CABAC : Yes
Format settings, RefFrames : 4 frames
Codec ID : V_MPEG4/ISO/AVC
Duration : 1 h 59 min
Bit rate : 10.3 Mb/s
Width : 1 920 pixels
Height : 1 040 pixels
Display aspect ratio : 1.85:1
Frame rate mode : Constant
Frame rate : 23.976 (24000/1001) FPS
Color space : YUV
Chroma subsampling : 4:2:0
Bit depth : 8 bits
Scan type : Progressive
Bits/(Pixel*Frame) : 0.215
Stream size : 8.38 GiB (85%)
Writing library : x264 core 152 r2851 ba24899


## Аудио поток: Format : DTS
Format/Info : Digital Theater Systems
Mode : 16
Format settings, Endianness : Big
Codec ID : A_DTS
Duration : 1 h 59 min
Bit rate mode : Constant
Bit rate : 1 509 kb/s
Channel(s) : 6 channels
Channel positions : Front: L C R, Side: L R, LFE
Sampling rate : 48.0 kHz
Frame rate : 93.750 FPS (512 SPF)
Bit depth : 24 bits
Compression mode : Lossy
Stream size : 1.26 GiB (13%)
Language : English
Default : Yes
Forced : No


## Субтитри: в торента

## Линк към IMDB: http://www.imdb.com/title/tt1758810/?ref_=nv_sr_1

## Резюме: Когато главният инспектор на елитна полицейска група (Фасбендър) започва разследването на убийство по време на първия сняг, опасенията му, че неуловим сериен убиец отново се е развилнял, се засилват с всеки изминал ден. С помощта на находчива новобранка (Фъргюсън), полицаят ще трябва да разнищи случаи на повече от десетилетие, както и най-новия такъв, с надеждата, че ще успее да надхитри злодея, преди да е паднал следващият сняг.

## Друга информация:













Категория Movies BR/HD-DVD
Оценка:
  • Currently 0.00/5
Rating: 0.0 out of 5.0 (Votes: 0) For your upload!

Размер 9.83 GB
Покажи / скрий файловете
2 files
Добавен 07/01/2018 - 14:19
Последно активен 20/06/2018 - 18:00
Свален 63 Път(и)
Пиъри Сийдъри: 1, Лийчъри: 0 = 1 Пиъри


fardin4o (User) 07/01/2018 21:00:18 (23 weeks ago) Редактиране!
меню има ли си блурая  на този филмangel.gifcool2.gif
Uploader (Unknown) 07/01/2018 21:09:48 (23 weeks ago) Редактиране!
Няма.Има само допълнителни английски субтитри във файла.