Реклама
Каталог
  iPhone
  Филми
      DVD-R
      XviD
      HDTV
      Сериали
      Формула 1
  Музика
      Песен
      Албум
      Клипове
  Игри
      PC
      Конзоли
  Програми
      Windows
      Linux
      MacOS
      PDA
  Книги
  XXX
  Други
  Всички
Форум
Теми:2,165
Отговори:254,485
Теми/Отговори:1 %
Торент детайли
Файл Аса и осмици (2008) / Aces 'N Eights - HD-DVD
СВАЛИ Аса и осмици (2008) / Aces 'N Eights - HD-DVD
Реклама
Инфо хeш 7f26b8d2f150a4f0d970bd8a969e4b089aa2ae16
Описание

## Заглавие на Английски: Aces 'N Eights

## Заглавие на Български: Аса и осмици

## Релийз: HD-DVD

## Жанр: Уестърн

## Режисьор: Крейг Р. Бъксли

## В ролите: Каспър Ван Диин, Брюс Бокслейтнер, Ърнест Боргнайн,
Джеф Кобер, Джек Ноузворфи, Уилям Атертън, Джейк Томас, Родни Скот, Дирдри Куин, Виктория Чалая и др.


## Държава:: САЩ

## Година: 2008

## Дължина: 83 мин.

## Официален сайт: http://www.imdb.com/title/tt1087828/

## Видео поток: Format : AVC
Format/Info : Advanced Video Codec
Format profile : Main@L5.1
Format settings : CABAC / 1 Ref Frames
Format settings, CABAC : Yes
Format settings, RefFrames : 1 frame
Codec ID : V_MPEG4/ISO/AVC
Duration : 1 h 23 min
Bit rate : 3 427 kb/s
Width : 1 280 pixels
Height : 720 pixels
Display aspect ratio : 16:9
Frame rate mode : Constant
Frame rate : 25.000 FPS
Color space : YUV
Chroma subsampling : 4:2:0
Bit depth : 8 bits
Scan type : Progressive
Bits/(Pixel*Frame) : 0.149
Stream size : 2.00 GiB (63%)


## Аудио поток: Format : AC-3
Format/Info : Audio Coding 3
Format settings, Endianness : Big
Codec ID : A_AC3
Duration : 1 h 23 min
Bit rate mode : Constant
Bit rate : 640 kb/s
Channel(s) : 6 channels
Channel positions : Front: L C R, Side: L R, LFE
Sampling rate : 48.0 kHz
Frame rate : 31.250 FPS (1536 SPF)
Bit depth : 16 bits
Compression mode : Lossy
Stream size : 382 MiB (12%)
Title : AC3 5.1


## Субтитри: BG Audio

## Линк към IMDB: http://www.imdb.com/title/tt1087828/

## Резюме: Резюме : Започва строителството на железницата и не всички хора искат да си продадат ранчото, за да направят път на релсите.
Службите, работещи по проправянето на железницата принуждават с насилие местните да си продадат земята на цените, предлагани от компанията.
Служител на компанията от Чикаго пристига, за да помогне по ненасилствен начин да се постигне това.


## Друга информация:

Езици: Български, английски и руски


Категория Movies BR/HD-DVD
Оценка:
  • Currently 5.00/5
Rating: 5.0 out of 5.0 (Votes: 1) For your upload!

Размер 3.18 GB
Покажи / скрий файловете
1 file
Добавен 27/02/2018 - 21:06
Последно активен 26/04/2018 - 09:41
Свален 42 Път(и)
Пиъри Сийдъри: 1, Лийчъри: 0 = 1 Пиъри


Без коментар...