Реклама
Каталог
  iPhone
  Филми
      DVD-R
      XviD
      HDTV
      Сериали
      Формула 1
  Музика
      Песен
      Албум
      Клипове
  Игри
      PC
      Конзоли
  Програми
      Windows
      Linux
      MacOS
      PDA
  Книги
  XXX
  Други
  Всички
Форум
Теми:2,157
Отговори:254,049
Теми/Отговори:1 %
Торент детайли
Файл Стената (2017) / The Wall - BluRay Disc
СВАЛИ Стената (2017) / The Wall - BluRay Disc
Реклама
Инфо хeш 83aa743be108939831a18368c6ee5f39d89d74c5
Описание




' ## Заглавие на Английски: The Wall

## Заглавие на Български: Стената

## Релийз: BluRay Disc

## Жанр: Военен; Драма; Трилър

## Режисьор: Дъг Лаймън

## Сценарист: Дуейн Уоръл

## В ролите: Джон Сина, Аарон Тейлър-Джоунс, Лейт Накли

## Държава:: САЩ

## Година: 2017

## Дължина: 01:29:54

## Видео поток: Format : AVC
Format/Info : Advanced Video Codec
Format profile : High@L4.1
Format settings, CABAC : Yes
Format settings, ReFrames : 5 frames
Codec ID : V_MPEG4/ISO/AVC
Duration : 1h 29mn
Bit rate : 8 933 Kbps
Width : 1 920 pixels
Height : 800 pixels
Display aspect ratio : 2.40:1
Frame rate mode : Constant
Frame rate : 23.976 fps
Color space : YUV
Chroma subsampling : 4:2:0
Bit depth : 8 bits
Scan type : Progressive
Bits/(Pixel*Frame) : 0.243
Stream size : 5.61 GiB (86%)
Writing library : x264 core 150 r2833 df79067


## Аудио поток: Format : DTS
Format/Info : Digital Theater Systems
Mode : 16
Format settings, Endianness : Big
Codec ID : A_DTS
Duration : 1h 29mn
Bit rate mode : Constant
Bit rate : 1 509 Kbps
Channel(s) : 6 channels
Channel positions : Front: L C R, Side: L R, LFE
Sampling rate : 48.0 KHz
Frame rate : 93.750 fps (512 spf)
Bit depth : 24 bits
Compression mode : Lossy
Stream size : 970 MiB (14%)
Language : English
Default : Yes
Forced : No


## Субтитри: в торента

## Линк към IMDB: http://www.imdb.com/title/tt4218696/?ref_=nv_sr_1

## Резюме: Американски стрелец се оказва в капан зад ниска стена и под прицела на враговете си. Героят успява да хване вражеска радио честота и да установи връзка с иракски снайперист. От цялата ситуация само един ще се измъкне жив…

## Друга информация:











Категория Movies BR/HD-DVD
Оценка:
  • Currently 0.00/5
Rating: 0.0 out of 5.0 (Votes: 0) For your upload!

Размер 6.60 GB
Покажи / скрий файловете
3 files
Добавен 16/12/2017 - 22:19
Последно активен 17/01/2018 - 13:28
Свален 141 Път(и)
Пиъри Сийдъри: 2, Лийчъри: 4 = 6 Пиъри


Без коментар...