Реклама
Каталог
  iPhone
  Филми
      DVD-R
      XviD
      HDTV
      Сериали
      Формула 1
  Музика
      Песен
      Албум
      Клипове
  Игри
      PC
      Конзоли
  Програми
      Windows
      Linux
      MacOS
      PDA
  Книги
  XXX
  Други
  Всички
Форум
Теми:2,232
Отговори:259,366
Теми/Отговори:1 %
Торент детайли
Файл Армия от един (2020) / Army of One - BRRip
СВАЛИ Армия от един (2020) / Army of One - BRRip
Реклама
Инфо хeш 87c41e8911aed47e4fb5a6898289511db1754125
Описание

## Заглавие на Английски: Army of One

## Заглавие на Български: Армия от един

## Релийз: BRRip

## Жанр: Екшън

## Режисьор: Стивън Дърам

## В ролите: Елън Холман, Мат Пасмор, Гари Каспър, Джералдин Сингър, Кейси Хендършът и др.

## Държава:: САЩ

## Година: 2020

## Дължина: 01:30:00

## Видео поток: ID : 1
Format : AVC
Format/Info : Advanced Video Codec
Format profile : High@L3
Format settings : CABAC / 4 Ref Frames
Format settings, CABAC : Yes
Format settings, Reference frames : 4 frames
Codec ID : V_MPEG4/ISO/AVC
Duration : 1 h 27 min
Bit rate : 2 015 kb/s
Width : 720 pixels
Height : 300 pixels
Display aspect ratio : 2.40:1
Original display aspect ratio : 2.40:1
Frame rate mode : Constant
Frame rate : 24.000 FPS
Color space : YUV
Chroma subsampling : 4:2:0
Bit depth : 8 bits
Scan type : Progressive
Bits/(Pixel*Frame) : 0.389
Stream size : 1.21 GiB (91%)
Writing library : x264 core 159
Language : English
Default : Yes
Forced : No


## Аудио поток: ID : 2
Format : AC-3
Format/Info : Audio Coding 3
Commercial name : Dolby Digital
Codec ID : A_AC3
Duration : 1 h 27 min
Bit rate mode : Constant
Bit rate : 192 kb/s
Channel(s) : 2 channels
Channel layout : L R
Sampling rate : 48.0 kHz
Frame rate : 31.250 FPS (1536 SPF)
Compression mode : Lossy
Delay relative to video : -5 ms
Stream size : 120 MiB (9%)
Language : English
Service kind : Complete Main
Default : Yes
Forced : No


## Субтитри: в торента

## Резюме: Докато лагеруват дълбоко в затънтените гори на Алабама, семейна двойка Дилън и Бренер Бейкър, когато попаднат на незаконно съоръжение за съхранение на наркотици и оръжие. Преди да могат да избягат от района, Картелът ги залавя и измъчва. Картелът обаче прави две грешки, те убиват Дилън и мислят, че са убили Бренер. Сега, лейтенант Бренер Бейкър от 75-ата дивизия на армията е на една жена, на мисия, изрязваща всички по пътя й, до последния

## Друга информация:

Субтитри : Благодарение на Ростислав Кирилов yavka.net






IMDb : Линк към IMDb

ТРЕЙЛЪР : Линк към YOUTUBE


Категория Movies XviD
Оценка:
  • Currently 4.20/5
Rating: 4.2 out of 5.0 (Votes: 5) For your upload!

Размер 1.33 GB
Покажи / скрий файловете
3 files
Добавен 14/01/2021 - 18:50
Последно активен 01/12/2021 - 14:45
Свален 1727 Път(и)
Пиъри Сийдъри: 11, Лийчъри: 0 = 11 Пиъри


sinsera (User) 20/02/2021 22:53:14 (40 weeks ago) Редактиране!
Пълна загуба на време. Абсолютна боза, не заслужава и 1 звезда.
guitmas (SuperUser) 06/04/2021 05:36:08 (34 weeks ago) Редактиране!
Абсолютна загуба на време. Лоши актьори, лоша музика и нинкакъв сценарий.
tmcdos (User) 26/10/2021 22:22:51 (5 weeks ago) Редактиране!
Само резюмето като се опита да зачете човек, и му става ясно че е време да затвори страницата.