Реклама
Каталог
  iPhone
  Филми
      DVD-R
      XviD
      HDTV
      Сериали
      Формула 1
  Музика
      Песен
      Албум
      Клипове
  Игри
      PC
      Конзоли
  Програми
      Windows
      Linux
      MacOS
      PDA
  Книги
  XXX
  Други
  Всички
Форум
Теми:2,214
Отговори:257,011
Теми/Отговори:1 %
Торент детайли
Файл Легендата за Коловрат (2017) / Legend O Kolovrat - HD other
СВАЛИ Легендата за Коловрат (2017) / Legend O Kolovrat - HD other
Реклама
Инфо хeш 8afce1ab6cc620991793a0de5ce11b23b72fb083
Описание




' ## Заглавие на Английски: Legend O Kolovrat

## Заглавие на Български: Легендата за Коловрат

## Релийз: HD other

## Жанр: Исторически

## Режисьор: Джаник Файзиев

## Сценарист: Иван Шурховецкий

## В ролите: Илья Малаков (Евпатий Коловрат), Полина Чернышова (Настя), Алексей Серебряков (Князь Юрий), Александр Ильин мл. (Каркуш), Игорь Савочкин (Ратмир), Тимофей Трибунцев , Александр Цой (Хан Батый), Юлия Хлынина (Лада)

## Държава:: Русия

## Година: 2017

## Дължина: 1:57:00

## Видео поток: Video
ID : 1
Format : AVC
Format/Info : Advanced Video Codec
Format profile : High@L4
Format settings : CABAC / 4 Ref Frames
Format settings, CABAC : Yes
Format settings, Reference : 4 frames
Codec ID : V_MPEG4/ISO/AVC
Duration : 1 h 57 min
Bit rate : 6 456 kb/s
Width : 1 920 pixels
Height : 804 pixels
Display aspect ratio : 2.40:1
Frame rate mode : Constant
Frame rate : 23.976 (24000/1001) FPS
Color space : YUV
Chroma subsampling : 4:2:0
Bit depth : 8 bits
Scan type : Progressive
Bits/(Pixel*Frame) : 0.174
Stream size : 5.32 GiB (74%)
Writing library : x264 core 146 r2538 121396c
Default : Yes
Forced : No


## Аудио поток: Audio #1
ID : 2
Format : AC-3
Format/Info : Audio Coding 3
Commercial name : Dolby Digital
Codec ID : A_AC3
Duration : 1 h 57 min
Bit rate mode : Constant
Bit rate : 640 kb/s
Channel(s) : 6 channels
Channel layout : L R C LFE Ls Rs
Sampling rate : 48.0 kHz
Frame rate : 31.250 FPS (1536 SPF)
Compression mode : Lossy
Stream size : 540 MiB (7%)
Language : Russian
Service kind : Complete Main
Default : Yes
Forced : No

Audio #2
ID : 3
Format : DTS
Format/Info : Digital Theater Systems
Codec ID : A_DTS
Duration : 1 h 57 min
Bit rate mode : Constant
Bit rate : 1 509 kb/s
Channel(s) : 6 channels
Channel layout : C L R Ls Rs LFE
Sampling rate : 48.0 kHz
Frame rate : 93.750 FPS (512 SPF)
Bit depth : 16 bits
Compression mode : Lossy
Stream size : 1.24 GiB (17%)
Language : Russian
Default : Yes
Forced : No


## Субтитри: вградени във видео файла

## Линк към IMDB: http://www.imdb.com/title/tt6054874/

## Резюме: ## Резюме : События киноленты развиваются на территории Руси образца XIII века.
На территорию государства совершают нападения войска хана Батыя, и ему достаточно быстро удается захватить большую часть великих княжеств.
Хан вместе со своей многотысячной дружиной и не думает останавливаться, желая продолжить свою захватническую компанию.
Русский народ постепенно начинает загибаться, будучи неспособным, дать достойный отпор.
Теперь на русских землях властвует татары, и серьезного сопротивления Золотая Орда не встречает.
Но однажды ситуация радикальным образом меняется, и у одного молодого и мужественного рязанского витязя – Евпатия Коловрата заканчивается терпение.
В частности такое желание появляться после того, как недруги уничтожили его родной город, а также расправились с женой и детьми.
Отважный воитель собирает подле себя остатки армии и подготавливается к предстоящему сражению с бесчисленной армией монголо-татар.
Батый, прознав о подвигах доблестного вояки, отнесся к нему достаточно скептически.
А ведь в действительности, на что способен человек с двумя мечами в руках и с парой сотней храбрецов за спиной?

#########################################################################################################

##Резюме:
Събитията на кинолентата пресъздават:
XIII век. Древна Киевска Рус и земите на Рус които са разпокъсани на малки Княжевства.
Наследниците на Великият Чингис Хан (Хан Бату - на северозапад(Синя или Златна Орда), Хан Кубилай - на югоизток, Хан Орда(Бялата Орда),Хан Мунке - на североизток.
През 1235 Бату е поставен начело на северозападната част от Монголската империя.
Където започва покоряване на буртасите, мокшите и мордвинците и куманите които са включени във военната им система на Златната Орда.
Запазени са сведения от унгарския мисионер Юлиян, свидетел на застрашителното поведние на монголците, които той нарича „Татари“ :
Основана е столицата Сарай Бату, но Рязан, Киев, Владимир, Суздал, Твер, Чернигов и много други градове са разрушени.Оцеляват Великий Новгород, Псков, Смоленск,Полоцк.
Подчинените му армии, водени от военачалника Субедей, пресичат Волга и през 1236 подчиняват Волжка България.
* Битката при завоя на Самара, наричана също Овнешка/Овча битка или Битка при Кернек, е първата битка между Волжка България и монголците.
Сражението е през есента на 1223 година, на южната граница на Волжка България. Български сили обграждат и разгромяват монголците. Според местни устни традиции, след като последните са обградени, българите започват да ги избиват и само 4000 души успяват да избягат, а останалите са пленени. И всеки от тях бива разменен за един воин/един овен с войските на Чингис Хан.
След това те нападат Киевска Рус и разрушават Рязан (1237 г.), Владимир (1238 г.) и столицата Киев (1240 г.).

1237 год.Монголите(Татарите) начело с Хан Бату(Батъй Хан) се завръщат и стигат пред Град Рязан.
Само в Княжество Рязан от всички Руси се осмелява да не се подчият на волята на нашествениците.
Само един Воевода влиза в битка с нашествениците. Най-мистериозният герой на Древна Рус, Евпатий (§ Коловрат §) влиза в най-невероятната битка в историята на света.
Отряд от смелчаци срещу хилядната армия на Хан Бату. Те се бият за любовта, за децата си и за своя народ и земя...

Приятно гледане!


## Друга информация: ## Субтитри : Български - вградени!  -  waterfall & ЦСКА72
## Синхронизация и поправки: JoDiKo & VilPeDa


Категория Movies x264
Оценка:
  • Currently 5.00/5
Rating: 5.0 out of 5.0 (Votes: 2) For your upload!

Размер 7.23 GB
Покажи / скрий файловете
6 files
Добавен 31/07/2020 - 11:31
Последно активен 13/08/2020 - 15:55
Свален 99 Път(и)
Пиъри Сийдъри: 10, Лийчъри: 0 = 10 Пиъри


Без коментар...