Реклама
Каталог
  iPhone
  Филми
      DVD-R
      XviD
      HDTV
      Сериали
      Формула 1
  Музика
      Песен
      Албум
      Клипове
  Игри
      PC
      Конзоли
  Програми
      Windows
      Linux
      MacOS
      PDA
  Книги
  XXX
  Други
  Всички
Форум
Теми:2,154
Отговори:253,949
Теми/Отговори:1 %
Торент детайли
Файл Мис "Кървав бой" (2016) / Lady Bloodfight - BRRip
СВАЛИ Мис "Кървав бой" (2016) / Lady Bloodfight - BRRip
Реклама
Инфо хeш 9a76c67c7d6f030cedd52ae83176474e770d813b
Описание




' ## Заглавие на Английски: Lady Bloodfight

## Заглавие на Български: Мис "Кървав бой"

## Релийз: BRRip

## Жанр: Драма; Екшън; Криминален; Трилър

## Режисьор: Крис Наон

## В ролите: Ейми Джонстън, Мюриел Хофман, Джени Ву, Кати Ву

## Държава:: Хонг Конг

## Година: 2016

## Дължина: 01:36:30

## Видео поток: Format : AVC
Format/Info : Advanced Video Codec
Format profile : Main@L3.1
Format settings, CABAC : No
Format settings, ReFrames : 2 frames
Codec ID : avc1
Codec ID/Info : Advanced Video Coding
Duration : 1 min 57 s
Bit rate : 5 006 kb/s
Width : 1 280 pixels
Height : 544 pixels
Display aspect ratio : 2.35:1
Frame rate mode : Constant
Frame rate : 23.976 (24000/1001) FPS
Color space : YUV
Chroma subsampling : 4:2:0
Bit depth : 8 bits
Scan type : Progressive
Bits/(Pixel*Frame) : 0.300
Stream size : 70.1 MiB (98%)
Language : English
Encoded date : UTC 2017-03-30 15:49:10
Tagged date : UTC 2017-03-30 15:49:13
Color range : Limited
Color primaries : BT.709
Transfer characteristics : BT.709
Matrix coefficients : BT.709


## Аудио поток: Format : AAC
Format/Info : Advanced Audio Codec
Format profile : LC
Codec ID : 40
Duration : 1 min 57 s
Source duration : 1 min 57 s
Bit rate mode : Constant
Bit rate : 96.0 kb/s
Channel(s) : 2 channels
Channel positions : Front: L R
Sampling rate : 44.1 kHz
Frame rate : 43.066 FPS (1024 spf)
Compression mode : Lossy
Stream size : 1.32 MiB (2%)
Source stream size : 1.32 MiB (2%)
Language : English
Encoded date : UTC 2017-03-30 15:49:11
Tagged date : UTC 2017-03-30 15:49:13


## Субтитри: в торента

## Линк към IMDB: http://www.imdb.com/title/tt4327752/?ref_=nv_sr_1

## Резюме: Джейн е красива американка, която непрекъснато си навлича неприятности. След поредното сбиване, решава да замине за Хонг Конг и първото й запознанство там е с... престъпния свят. Тя е пребита, окрадена и захвърлена на улицата. Срещата й с момиче владеещо бойните изкуства й идва като дар от небето, защото единствената нейна мечта е да участва на голям турнир. Молбата към момичето е само една: научи ме да се бия! Но турнира се оказва, не такъв, какъвто си го е представяла.

## Друга информация:















Категория Movies x264
Оценка:
  • Currently 0.00/5
Rating: 0.0 out of 5.0 (Votes: 0) For your upload!

Размер 2.03 GB
Покажи / скрий файловете
2 files
Добавен 02/12/2017 - 23:30
Последно активен 15/12/2017 - 12:58
Свален 241 Път(и)
Пиъри Сийдъри: 24, Лийчъри: 0 = 24 Пиъри


Без коментар...