Реклама
Каталог
  iPhone
  Филми
      DVD-R
      XviD
      HDTV
      Сериали
      Формула 1
  Музика
      Песен
      Албум
      Клипове
  Игри
      PC
      Конзоли
  Програми
      Windows
      Linux
      MacOS
      PDA
  Книги
  XXX
  Други
  Всички
Форум
Теми:2,223
Отговори:257,686
Теми/Отговори:1 %
Торент детайли
Файл Жената чудо 2 (2020) / Wonder Woman 1984 - HD-DVD
СВАЛИ Жената чудо 2 (2020) / Wonder Woman 1984 - HD-DVD
Реклама
Инфо хeш 9a78ee0801d44cb5b9557d6a485deeab5154d7d5
Описание

## Заглавие на Английски: Wonder Woman 1984

## Заглавие на Български: Жената чудо 2

## Релийз: HD-DVD

## Жанр: Екшън; Приключенски; Фентъзи

## Режисьор: Пати Дженкинс

## Сценарист: Джоф Джоунс, Пати Дженкинс, Дейв Калахам

## В ролите: Линда Картър, Робин Райт, Кони Нилсен, Габриела Уайлд, Рави Пател, Гал Гадот, Крис Пайн, Педро Паскал, Кристен Уиг, Наташа Ротуел

## Държава:: САЩ

## Година: 2020

## Дължина: 02:31:00

## Видео поток: ID : 2
Format : AVC
Format/Info : Advanced Video Codec
Format profile : High@L4
Format settings : CABAC / 4 Ref Frames
Format settings, CABAC : Yes
Format settings, Reference frames : 4 frames
Codec ID : V_MPEG4/ISO/AVC
Duration : 2 h 31 min
Bit rate : 5 194 kb/s
Width : 1 920 pixels
Height : 1 012 pixels
Display aspect ratio : 1.897
Frame rate mode : Constant
Frame rate : 23.976 (24000/1001) FPS
Color space : YUV
Chroma subsampling : 4:2:0
Bit depth : 8 bits
Scan type : Progressive
Bits/(Pixel*Frame) : 0.111
Stream size : 5.48 GiB (93%)
Language : English
Default : Yes
Forced : No
Color range : Limited
Color primaries : BT.709
Transfer characteristics : BT.709
Matrix coefficients : BT.709


## Аудио поток: ID : 1
Format : AC-3
Format/Info : Audio Coding 3
Commercial name : Dolby Digital
Codec ID : A_AC3
Duration : 2 h 31 min
Bit rate mode : Constant
Bit rate : 384 kb/s
Channel(s) : 6 channels
Channel layout : L R C LFE Ls Rs
Sampling rate : 48.0 kHz
Frame rate : 31.250 FPS (1536 SPF)
Compression mode : Lossy
Delay relative to video : -42 ms
Stream size : 415 MiB (7%)
Language : English
Service kind : Complete Main
Default : Yes
Forced : No


## Субтитри: от subsunacs.net

## Адрес на субтитрите (URL): https://subsunacs.net/subtitles/Wonder_Woman_1984-140617/

## Резюме: В своята нова мисия, чието действие се развива по време на Студената война, принцесата на Амазонките Диана ще се изправи срещу археоложката Барбара Ан Минерва, която ще се превърне в зловещата Чита. Гал Гадот е отново в коронната си роля, а в ролята на Чита е Кристен Уиг. Крис Пайн също ще видим в ролята на Стив Тревър – да, напук на логиката той е успял да оцелее.

## Друга информация:

 


IMDb : Линк към IMDb

Cinefish.bg : Линк към КиноВиж

ТРЕЙЛЪР : Линк към YOUTUBE


Категория Movies BR/HD-DVD
Оценка:
  • Currently 0.00/5
Rating: 0.0 out of 5.0 (Votes: 0) For your upload!

Размер 5.89 GB
Покажи / скрий файловете
3 files
Добавен 27/12/2020 - 15:21
Последно активен 19/01/2021 - 22:25
Свален 23 Път(и)
Пиъри Сийдъри: 1, Лийчъри: 0 = 1 Пиъри


Без коментар...