Реклама
Каталог
  iPhone
  Филми
      DVD-R
      XviD
      HDTV
      Сериали
      Формула 1
  Музика
      Песен
      Албум
      Клипове
  Игри
      PC
      Конзоли
  Програми
      Windows
      Linux
      MacOS
      PDA
  Книги
  XXX
  Други
  Всички
Форум
Теми:2,188
Отговори:255,463
Теми/Отговори:1 %
Торент детайли
Файл Какво се случи с Понеделник (2017) / What Happened to Monday - BluRay Disc
СВАЛИ Какво се случи с Понеделник (2017) / What Happened to Monday - BluRay Disc
Реклама
Инфо хeш 9ce4d910c9695cd9dece8e59bc273cf01df9ccf5
Описание




' ## Заглавие на Английски: What Happened to Monday

## Заглавие на Български: Какво се случи с Понеделник

## Релийз: BluRay Disc

## Жанр: Драма; Екшън; Криминален; Мистерия; Приключенски; Трилър; Фантастика

## Режисьор: Томи Виркола

## В ролите: Нуми Рапас, Уилям Дефо, Глен Клоуз, Вегар Хоел, Стиг Фроде Хенриксен, Аш Хънтър

## Държава:: Франция; Великобритания; Друга

## Година: 2017

## Дължина: 02:03:18

## Видео поток: Format : AVC
Format/Info : Advanced Video Codec
Format profile : High@L4.1
Format settings : CABAC / 5 Ref Frames
Format settings, CABAC : Yes
Format settings, RefFrames : 5 frames
Codec ID : V_MPEG4/ISO/AVC
Duration : 2 h 3 min
Bit rate : 8 643 kb/s
Width : 1 920 pixels
Height : 808 pixels
Display aspect ratio : 2.40:1
Frame rate mode : Constant
Frame rate : 24.000 FPS
Color space : YUV
Chroma subsampling : 4:2:0
Bit depth : 8 bits
Scan type : Progressive
Bits/(Pixel*Frame) : 0.232
Stream size : 7.27 GiB (83%)
Writing library : x264 core 152 r2851 ba24899


## Аудио поток: Format : DTS
Format/Info : Digital Theater Systems
Mode : 16
Format settings, Endianness : Big
Codec ID : A_DTS
Duration : 2 h 3 min
Bit rate mode : Constant
Bit rate : 1 509 kb/s
Channel(s) : 6 channels
Channel positions : Front: L C R, Side: L R, LFE
Sampling rate : 48.0 kHz
Frame rate : 93.750 FPS (512 SPF)
Bit depth : 24 bits
Compression mode : Lossy
Stream size : 1.30 GiB (15%)
Language : English
Default : Yes
Forced : No


## Субтитри: в торента

## Линк към IMDB: http://www.imdb.com/title/tt1536537/

## Резюме: В свят, в който на семейните двойки им е разрешено да имат само по едно дете, се раждат седем сестри близначки. Родителите решават да задържат всичките деца и им дават имена в чест на дните от седмицата. Така момичетата се появяват публично всяка в своя ден. Но един ден Понеделник изчезва...

## Друга информация:











Категория Movies BR/HD-DVD
Оценка:
  • Currently 5.00/5
Rating: 5.0 out of 5.0 (Votes: 1) For your upload!

Размер 8.74 GB
Покажи / скрий файловете
2 files
Добавен 17/12/2017 - 23:39
Последно активен 09/12/2018 - 21:26
Свален 41 Път(и)
Пиъри Сийдъри: 0, Лийчъри: 0 = 0 Пиъри


Без коментар...