Реклама
Каталог
  iPhone
  Филми
      DVD-R
      XviD
      HDTV
      Сериали
      Формула 1
  Музика
      Песен
      Албум
      Клипове
  Игри
      PC
      Конзоли
  Програми
      Windows
      Linux
      MacOS
      PDA
  Книги
  XXX
  Други
  Всички
Форум
Теми:2,233
Отговори:259,601
Теми/Отговори:1 %
Торент детайли
Файл 1492 - Завоюването на рая (1992) / 1492 - The Conquest of Paradise - DVD-Rip
СВАЛИ 1492 - Завоюването на рая (1992) / 1492 - The Conquest of Paradise - DVD-Rip
Реклама
Инфо хeш a436dacb2367617199968d41ab1e5d921c95002b
Описание




' ## Заглавие на Английски: 1492 - The Conquest of Paradise

## Заглавие на Български: 1492 - Завоюването на рая

## Релийз: DVD-Rip

## Жанр: Драма; Исторически; Приключенски; Друг

## Режисьор: Ридли Скот

## Сценарист: Розалин Бош

## В ролите:
Жерар Депардийо (Христофор Колумб),
Арман Асанте (Санчес),
Сигорни Уивър (кралица Исабел I),
Франк Лангела (Луис де Сантанхел),
Лорън Дийн (Фернандо Колумб),
Фернандо Рей (Антонио де Марчена)
и много други...


## Държава:: САЩ; Франция; Великобритания; Испания

## Година: 1992

## Дължина: 02:30:02

## Видео поток:
Format : MPEG-4 Visual
Format profile : Advanced Simple@L5
Format settings, BVOP : 1
Format settings, QPel : No
Format settings, GMC : No warppoints
Format settings, Matrix : Default (H.263)
Muxing mode : Packed bitstream
Codec ID : XVID
Codec ID/Hint : XviD
Duration : 2h 29mn
Bit rate : 1 174 Kbps
Width : 720 pixels
Height : 304 pixels
Display aspect ratio : 2.35:1
Frame rate : 25.000 fps
Color space : YUV
Chroma subsampling : 4:2:0
Bit depth : 8 bits
Scan type : Progressive
Compression mode : Lossy
Bits/(Pixel*Frame) : 0.215
Stream size : 1.22 GiB (72%)
Writing library : XviD 1.2.1 (UTC 2008-12-04)


## Аудио поток:
Format : AC-3
Format/Info : Audio Coding 3
Mode extension : CM (complete main)
Format settings, Endianness : Big
Codec ID : 2000
Duration : 2h 29mn
Bit rate mode : Constant
Bit rate : 448 Kbps
Channel(s) : 6 channels
Channel positions : Front: L C R, Side: L R, LFE
Sampling rate : 48.0 KHz
Bit depth : 16 bits
Compression mode : Lossy
Stream size : 478 MiB (27%)
Alignment : Split accross interleaves
Interleave, duration : 80 ms (2.00 video frames)
Interleave, preload duration : 500 ms
Language : English


## Субтитри: в торента

## Линк към IMDB: http://www.imdb.com/title/tt0103594/

## Резюме:

Високобюджетен филм, който разказва историята за това как Христофор Колумб е открил Америка. Филмът излиза през 1992 по повод честването на 500 годишнината от откриването на Америка и показва разрушителният ефект, който Европейците са оказали на местните жители, както и битката, която Колумб води за да цивилизова Новият свят и местните жители.

Христофор Колумб убеждава испанския кралски двор да изпрати експедицията му в океана, за да открие нов път от Запада към Изтока, заобикаляйки Земята. Така става възможно откриването на Новия свят. Усилията на Колумб да живее в мир с индианците са опропастени от последователите му и тяхната алчност и кръвожадност.
Една увлекателна история за откривателство и предателства, в която Колумб губи и завършва годините си в мизерия и неизвестност...


## Друга информация:



























Категория Movies XviD
Оценка:
  • Currently 5.00/5
Rating: 5.0 out of 5.0 (Votes: 1) For your upload!

Размер 1.70 GB
Покажи / скрий файловете
4 files
Добавен 17/10/2013 - 13:51
Последно активен 08/10/2018 - 16:29
Свален 288 Път(и)
Пиъри Сийдъри: 0, Лийчъри: 0 = 0 Пиъри


Без коментар...