Реклама
Каталог
  iPhone
  Филми
      DVD-R
      XviD
      HDTV
      Сериали
      Формула 1
  Музика
      Песен
      Албум
      Клипове
  Игри
      PC
      Конзоли
  Програми
      Windows
      Linux
      MacOS
      PDA
  Книги
  XXX
  Други
  Всички
Форум
Теми:2,175
Отговори:255,193
Теми/Отговори:1 %
Торент детайли
Файл Формата на водата (2017) / The.Shape.of.Water.2017.1080p.BluRay.x264-SPARKS - BluRay Disc
СВАЛИ Формата на водата (2017) / The.Shape.of.Water.2017.1080p.BluRay.x264-SPARKS - BluRay Disc
Реклама
Инфо хeш b959f5b6234b7c4b55e70a59657f2be7267812b6
Описание




' ## Заглавие на Английски: The.Shape.of.Water.2017.1080p.BluRay.x264-SPARKS

## Заглавие на Български: Формата на водата

## Релийз: BluRay Disc

## Жанр: Драма; Приключенски; Фентъзи

## Режисьор: Гийермо дел Торо

## Сценарист: Гийермо дел Торо

## В ролите: Сали Хоукинс, Дъг Джоунс, Октавия Спенсър, Майкъл Шанън, Майкъл Щулбарг, Ричард Дженкинс и др.

## Държава:: САЩ

## Година: 2017

## Дължина: 02:05

## Видео поток: ID : 1
Format : AVC
Format/Info : Advanced Video Codec
Format profile : High@L4.1
Format settings, CABAC : Yes
Format settings, RefFrames : 4 frames
Codec ID : V_MPEG4/ISO/AVC
Duration : 2 h 3 min
Bit rate : 9 907 kb/s
Width : 1 920 pixels
Height : 1 040 pixels
Display aspect ratio : 1.85:1
Frame rate mode : Constant
Frame rate : 23.976 (24000/1001) FPS
Color space : YUV
Chroma subsampling : 4:2:0
Bit depth : 8 bits
Scan type : Progressive
Bits/(Pixel*Frame) : 0.207
Stream size : 8.34 GiB (85%)
Writing library : x264 core 155 r2901 7d0ff22


## Аудио поток: ID : 2
Format : DTS
Format/Info : Digital Theater Systems
Mode : 16
Format settings, Endianness : Big
Codec ID : A_DTS
Duration : 2 h 3 min
Bit rate mode : Constant
Bit rate : 1 509 kb/s
Channel(s) : 6 channels
Channel positions : Front: L C R, Side: L R, LFE
Sampling rate : 48.0 kHz
Frame rate : 93.750 FPS (512 SPF)
Bit depth : 24 bits
Compression mode : Lossy
Stream size : 1.30 GiB (13%)
Language : English
Default : Yes
Forced : No

Text
ID : 3
Format : UTF-8
Codec ID : S_TEXT/UTF8
Codec ID/Info : UTF-8 Plain Text
Title : Forced
Language : English


## Субтитри: от subs.sab.bz

## Адрес на субтитрите (URL): http://subs.sab.bz/index.php?act=download&attach_id=91151

## Линк към IMDB: http://www.imdb.com/title/tt5580390/

## Резюме: Номиниран за 7 Златни глобуса, спечели два - за най-добър режисьор (Гийермо дел Торо) и най-добра музика (Александър Деспла), както и номинации за редица други награди
Една приказна история от друг свят се случва във времето на Студената война в Америка в началото на 60-те години. Самотната Елиза работи в тайнствена, високо секретна правителствена лаборатория и се чувства окована в живот, изграден от тишина и изолация. Но съдбата й се променя завинаги, когато тя и нейната колежка Зелда откриват един таен експеримент…


Категория Movies BR/HD-DVD
Оценка:
  • Currently 0.00/5
Rating: 0.0 out of 5.0 (Votes: 0) For your upload!

Размер 9.83 GB
Покажи / скрий файловете
5 files
Добавен 18/03/2018 - 14:50
Последно активен 23/09/2018 - 22:57
Свален 50 Път(и)
Пиъри Сийдъри: 1, Лийчъри: 0 = 1 Пиъри


Без коментар...