Реклама
Каталог
  iPhone
  Филми
      DVD-R
      XviD
      HDTV
      Сериали
      Формула 1
  Музика
      Песен
      Албум
      Клипове
  Игри
      PC
      Конзоли
  Програми
      Windows
      Linux
      MacOS
      PDA
  Книги
  XXX
  Други
  Всички
Форум
Теми:2,231
Отговори:259,069
Теми/Отговори:1 %
Торент детайли
Файл Круиз в джунглата (2021) / Jungle Cruise - HDTV-Rip
СВАЛИ Круиз в джунглата (2021) / Jungle Cruise - HDTV-Rip
Реклама
Инфо хeш da5bc3b91bce91ae3299990effcb3fdc0965d522
Описание




' ## Заглавие на Английски: Jungle Cruise

## Заглавие на Български: Круиз в джунглата

## Релийз: HDTV-Rip

## Жанр: Екшън; Комедия; Приключенски

## Режисьор: Жауме Колет-Сера

## В ролите: Дуейн Джонсън, Анди Наймън, Пол Джиамати, Ранди Нюман, Едгар Рамирес, Джеси Племънс, Емили Блънт, Вероника Фалкон, Джак Уайтхол

## Държава:: САЩ

## Година: 2021

## Дължина: 02:07:18

## Видео поток: Video
ID : 0
Format : MPEG-4 Visual
Format profile : Simple@L5
Format settings, BVOP : No
Format settings, QPel : No
Format settings, GMC : No warppoints
Format settings, Matrix : Default (H.263)
Codec ID : XVID
Codec ID/Hint : XviD
Duration : 2 h 7 min
Bit rate : 1 598 kb/s
Width : 720 pixels
Height : 302 pixels
Display aspect ratio : 2.40:1
Original display aspect ratio : 2.40:1
Frame rate : 23.976 (24000/1001) FPS
Color space : YUV
Chroma subsampling : 4:2:0
Bit depth : 8 bits
Scan type : Progressive
Compression mode : Lossy
Bits/(Pixel*Frame) : 0.306
Stream size : 1.42 GiB (89%)
Title : RARBG - Jungle.Cruise.2021.WEBRip.XviD.MP3-XVID
Writing library : Lavc58.35.100


## Аудио поток: Audio
ID : 1
Format : MPEG Audio
Format version : Version 1
Format profile : Layer 3
Format settings : Joint stereo
Codec ID : 55
Codec ID/Hint : MP3
Duration : 2 h 7 min
Bit rate mode : Constant
Bit rate : 192 kb/s
Channel(s) : 2 channels
Sampling rate : 48.0 kHz
Compression mode : Lossy
Stream size : 175 MiB (11%)
Alignment : Aligned on interleaves
Interleave, duration : 24 ms (0.58 video frame)
Interleave, preload duration : 24 ms
Title : RARBG - Jungle.Cruise.2021.WEBRip.XviD.MP3-XVID
Writing library : LAMEUUU


## Субтитри: от subs.sab.bz

## Адрес на субтитрите (URL): http://subs.sab.bz/index.php?act=details&sid=88318

## Линк към IMDB: http://www.imdb.com/title/tt0870154/?ref_=nv_sr_srsg_0

## Резюме: Невероятната Емили Блънт за пореден път се превъплъщава в изключително любопитен образ от света на Дисни – този на смелата и решителна Лили, която тръгва по следите на древна легенда, която гласи, че в дебрите на амазонската джунгла има тайнствено дърво с лечебна сила. Заедно със своя брат тя се посвещава безусловно на идеята не само да открият мистичното дърво, но и да попречат то да попадне в грешните ръце, които да превърнат силата в истинско проклятие. В техен верен спътник и водач се превръща опитният капитан Франк (Дуейн Джонсън), който наравно с тях се впуска в опасностите по пътя към целта.

## Друга информация:








Категория Movies XviD
Оценка:
  • Currently 4.50/5
Rating: 4.5 out of 5.0 (Votes: 14) For your upload!

Размер 1.60 GB
Покажи / скрий файловете
1 file
Добавен 02/08/2021 - 16:46
Последно активен 19/10/2021 - 11:54
Свален 2540 Път(и)
Пиъри Сийдъри: 63, Лийчъри: 0 = 63 Пиъри


stoy4o66 (User) 04/08/2021 14:35:37 (10 weeks ago) Редактиране!
Филма е супер.Ако го качите и на 3D ще съм ви много благодарен.