Реклама
Каталог
  iPhone
  Филми
      DVD-R
      XviD
      HDTV
      Сериали
      Формула 1
  Музика
      Песен
      Албум
      Клипове
  Игри
      PC
      Конзоли
  Програми
      Windows
      Linux
      MacOS
      PDA
  Книги
  XXX
  Други
  Всички
Форум
Теми:2,154
Отговори:253,949
Теми/Отговори:1 %
Торент детайли
Файл Бари Сийл: Наркотрафикантът (2017) / American made - BluRay Disc
СВАЛИ Бари Сийл: Наркотрафикантът (2017) / American made - BluRay Disc
Реклама
Инфо хeш fa7bc19342342ef7b279def7adc40e5577041b66
Описание




' ## Заглавие на Английски: American made

## Заглавие на Български: Бари Сийл: Наркотрафикантът

## Релийз: BluRay Disc

## Жанр: Драма; Екшън; Исторически; Комедия; Криминален; Трилър; Друг

## Режисьор: Дъг Лаймън

## Сценарист: Гари Спинели

## В ролите: Том Круз, Джед Рийс, Мики Съмнер, Лара Грайс, Стив Култър, Кайла Пъркинс, Бенито Мартинес, Домнал Глийсън, Джайма Мейс, Сара Райт, Конър Тринир, Джеси Племънс, Лола Кирк, Кейлъб Ландри Джоунс, Е. Роджър Митчел, Кевин Л. Джонсън, Уилам Марк МакКълъх, Ейприл Билингсли, Марк Пниевски, Шарън Конли

## Държава:: САЩ

## Година: 2017

## Дължина: 01:54:58

## Видео поток: Format : AVC
Format/Info : Advanced Video Codec
Format profile : High@L4.1
Format settings : CABAC / 4 Ref Frames
Format settings, CABAC : Yes
Format settings, RefFrames : 4 frames
Codec ID : V_MPEG4/ISO/AVC
Duration : 1 h 54 min
Bit rate : 9 379 kb/s
Width : 1 920 pixels
Height : 1 040 pixels
Display aspect ratio : 1.85:1
Frame rate mode : Constant
Frame rate : 23.976 FPS
Color space : YUV
Chroma subsampling : 4:2:0
Bit depth : 8 bits
Scan type : Progressive
Bits/(Pixel*Frame) : 0.196
Stream size : 7.53 GiB (86%)
Writing library : x264 core 152 r2851 ba24899


## Аудио поток: Format : DTS
Format/Info : Digital Theater Systems
Mode : 16
Format settings, Endianness : Big
Codec ID : A_DTS
Duration : 1 h 54 min
Bit rate mode : Constant
Bit rate : 1 509 kb/s
Channel(s) : 6 channels
Channel positions : Front: L C R, Side: L R, LFE
Sampling rate : 48.0 kHz
Frame rate : 93.750 FPS (512 SPF)
Bit depth : 24 bits
Compression mode : Lossy
Stream size : 1.21 GiB (14%)
Language : English
Default : Yes
Forced : No


## Субтитри: в торента

## Линк към IMDB: http://www.imdb.com/title/tt3532216/

## Резюме: В Бари Сийл: Наркотрафикантът на Universal Pictures Том Круз отново работи с режисьора на На ръба на утрешния ден Дъг Лаймън (Самоличността на Борн, Мистър и мисис Смит). Това международно приключение е по налудничавата (но истинска) история на пилота мошеник, който съвсем неочаквано е вербуван от ЦРУ за една от най-мащабните операции под прикритие в американската история.

## Друга информация:











Категория Movies BR/HD-DVD
Оценка:
  • Currently 0.00/5
Rating: 0.0 out of 5.0 (Votes: 0) For your upload!

Размер 8.82 GB
Покажи / скрий файловете
3 files
Добавен 07/12/2017 - 14:28
Последно активен 15/12/2017 - 11:01
Свален 27 Път(и)
Пиъри Сийдъри: 2, Лийчъри: 0 = 2 Пиъри


Без коментар...